<?xml version="1.0" standalone="no"?>
<!DOCTYPE svg PUBLIC "-//W3C//DTD SVG 1.1//EN" "http://www.w3.org/Graphics/SVG/1.1/DTD/svg11.dtd" >
<svg xmlns="http://www.w3.org/2000/svg">
<metadata></metadata>
<defs>
<font id="southern_aire_personal_use_Rg" horiz-adv-x="250" >
<font-face units-per-em="1000" ascent="750" descent="-250" />
<missing-glyph horiz-adv-x="204" />
<glyph unicode="ll" horiz-adv-x="398" d="M403 247q23 14 28 8t-11 -22q-17 -16 -36 -32.5t-37.5 -31t-36.5 -24.5t-33 -13q-13 -2 -30 -0.5t-32 8.5t-25 19.5t-10 32.5q0 12 20 50t52.5 88t74 106.5t85 106.5t85.5 87t75 48q10 4 28 3t35 -6.5t29.5 -16t12.5 -24.5q0 -16 -19.5 -44t-52 -62.5t-74.5 -74 t-86.5 -78.5t-89.5 -74.5t-82 -62.5q-11 -15 -18 -28q-6 -11 -9.5 -21.5t1.5 -14.5q3 -3 24 6t46.5 22t50 26.5t35.5 18.5zM626 629q-4 5 -19.5 -6t-38 -33t-49.5 -51.5t-55 -60.5q-65 -74 -146 -171q13 10 42.5 35t65.5 58.5t74 70t68 69t47 57t11 32.5zM204 247 q23 14 28 8t-11 -22q-17 -16 -36 -32.5t-37.5 -31t-36.5 -24.5t-33 -13q-13 -2 -30 -0.5t-32 8.5t-25 19.5t-10 32.5q0 12 16.5 49t43.5 86t62 103.5t73 103t76 84.5t71 47q10 4 28 3t35 -6.5t29.5 -16t12.5 -24.5q0 -16 -16 -43t-42.5 -60.5t-62 -71t-75 -75t-80.5 -72 t-78 -61.5q-11 -15 -18 -28q-6 -11 -9.5 -21.5t1.5 -14.5q3 -3 24 6t46.5 22t50 26.5t35.5 18.5zM377 616q-4 5 -17.5 -6t-32 -32t-41.5 -49t-46 -58q-55 -71 -121 -164q13 10 38.5 34.5t56.5 56t62.5 66.5t56 66t37.5 54.5t7 31.5z" />
<glyph unicode="tl" horiz-adv-x="385" d="M210 330q-14 0 -21 1t-15 1q-11 -8 -27.5 -23.5t-34.5 -34t-34.5 -38.5t-28 -37.5t-16 -30.5t2.5 -18q6 -4 28 9t47.5 31t49 35.5t32.5 22.5q18 12 26 5t-1 -19q-5 -6 -24 -25.5t-44.5 -40t-53 -36.5t-47.5 -16q-41 0 -53.5 22.5t-7.5 56t24 72t43 69.5q-47 10 -36 22 q5 5 63 7q16 14 30 23t27 9q12 0 26 -9.5t22 -21.5h37q12 0 14 -5.5t-2 -12.5t-11.5 -12.5t-14.5 -5.5zM390 247q23 14 28 8t-11 -22q-17 -16 -36 -32.5t-37.5 -31t-36.5 -24.5t-33 -13q-13 -2 -30 -0.5t-32 8.5t-25 19.5t-10 32.5q0 12 18.5 50t49 88t69 106.5t80 106.5 t81.5 87t73 48q10 4 28 3t35 -6.5t29.5 -16t12.5 -24.5q0 -16 -18 -44t-48 -62.5t-69 -74t-82 -78.5t-86 -74.5t-80 -62.5q-11 -15 -18 -28q-6 -11 -9.5 -21.5t1.5 -14.5q3 -3 24 6t46.5 22t50 26.5t35.5 18.5zM592 629q-4 5 -18.5 -6t-35.5 -33t-46 -51.5t-51 -60.5 q-61 -74 -136 -171q13 10 41 35t61.5 58.5t69 70t63 69t43 57t9.5 32.5z" />
<glyph unicode="tt" horiz-adv-x="372" d="M315 342q-35 -1 -69.5 -1.5t-67.5 -2.5q-11 -8 -28 -24t-35 -35t-35.5 -40t-29.5 -39t-16.5 -31.5t2.5 -18.5q6 -4 28 9t47.5 31t49 35.5t32.5 22.5q18 12 26 5t-1 -19q-5 -6 -24 -25.5t-44.5 -40t-53 -36.5t-47.5 -16q-41 0 -53.5 22.5t-7.5 56t24 72t43 69.5 q-47 10 -36 22q5 5 63 7q16 14 30 23t27 9q12 0 26 -9.5t22 -21.5h61t66 1zM268 365q16 14 30 23t27 9q12 0 26 -9.5t22 -21.5q51 0 109 1t118 3q76 2 139 6t110.5 8t77 7t38.5 3q17 0 37.5 -5.5t37.5 -13t26.5 -16t3.5 -15.5q-3 -4 -34 -4.5t-81.5 0t-118 1.5t-145 1.5 t-161 0t-166.5 -4.5q-11 -8 -28 -24t-35 -35t-35.5 -40t-29.5 -39t-16.5 -31.5t2.5 -18.5q6 -4 28 9t47.5 31t49 35.5t32.5 22.5q18 12 26 5t-1 -19q-5 -6 -24 -25.5t-44.5 -40t-53 -36.5t-47.5 -16q-41 0 -53.5 22.5t-7.5 56t24 72t43 69.5z" />
<glyph unicode="&#xd;" horiz-adv-x="600" />
<glyph unicode=" "  horiz-adv-x="204" />
<glyph unicode="&#x09;" horiz-adv-x="204" />
<glyph unicode="&#xa0;" horiz-adv-x="204" />
<glyph unicode="!" horiz-adv-x="169" d="M46 100q-6 0 -15 3t-16.5 8t-12 11.5t-3.5 13.5q1 6 5.5 15.5t10.5 19t13.5 17t14.5 9.5q7 1 17 -3t19 -10.5t14.5 -13.5t4.5 -13q0 -6 -6 -15t-14 -18t-17 -16t-15 -8zM132 257q-5 -3 -12 -3t-14 3t-11.5 8.5t-3.5 12.5q1 4 12 25t27.5 50.5t36 62.5t37 61.5t31 47.5 t18.5 20q10 2 22.5 -2.5t23.5 -13.5t18 -20t6 -21q0 -4 -13 -21.5t-33 -42.5t-43.5 -53t-44.5 -52.5t-37 -41.5t-20 -20z" />
<glyph unicode="&#x22;" horiz-adv-x="182" d="M116 287q-10 -7 -20 -2t-8 19q0 3 3 13t9 21q-17 -17 -33 -31.5t-23 -19.5q-10 -7 -20 -2t-8 19q1 6 8.5 25.5t17 40.5t20 38t17.5 19q11 2 27 -7t24 -19q6 11 11 18t10 8q7 1 17 -2.5t19 -10t14.5 -14t4.5 -12.5q0 -6 -11.5 -21t-27 -31.5t-30.5 -30.5t-21 -18z" />
<glyph unicode="#" horiz-adv-x="316" d="M151 120q-6 -5 -16.5 0t-9.5 14q0 2 4.5 11.5t12.5 23.5q-9 0 -18 -0.5t-17 -0.5q-17 -19 -30 -32.5t-16 -15.5q-6 -5 -16.5 0t-9.5 14q0 2 4.5 11.5t12.5 22.5q-6 0 -12.5 0.5t-9.5 0.5q-8 0 -8 4.5t5 10.5t14 10.5t20 4.5h7q3 4 5 8t5 9h-16q-8 0 -8 4.5t5.5 10.5 t14.5 10.5t20 4.5h3q16 24 28.5 42.5t16.5 19.5q6 2 14 -1t15 -8.5t11.5 -13t4.5 -13.5q0 -5 -18 -26h18q16 24 28.5 42.5t16.5 19.5q6 2 14 -1t15 -8.5t11.5 -13t4.5 -13.5q0 -4 -15 -24q8 0 12 2q7 1 9 -3t-1.5 -9t-11 -10t-18.5 -7l-13 -3l-15 -18q6 2 10.5 2t6.5 1 q8 1 9.5 -3t-1.5 -9t-11 -10t-18 -7q-5 -1 -10.5 -1.5t-10.5 -0.5q-17 -20 -30.5 -35t-17.5 -17zM158 199q3 5 5.5 8.5t4.5 8.5q-5 0 -10.5 -0.5t-12.5 -0.5l-13 -16h26z" />
<glyph unicode="$" horiz-adv-x="716" d="M204 -89q-38 -4 -71 -1t-59 14q-26 12 -44.5 36.5t-24.5 52t4 53t40 40.5q10 4 22 0t20.5 -11.5t11 -16t-5.5 -13.5q-34 -22 -45.5 -38.5t-6 -27.5t24.5 -17t45 -7t56 2.5t58 10.5l65 198q-27 -5 -52.5 -10t-45.5 -8q-19 -3 -41.5 -2.5t-44 4t-41 11t-32.5 19.5 q-39 35 -29 79t51.5 90t107 91t138.5 82q22 11 52.5 25t67.5 28q14 41 22.5 70.5t12.5 40.5q5 17 14.5 20.5t17.5 -1t12.5 -13.5t-0.5 -17q-5 -7 -14 -29t-22 -55l50 15q13 39 21.5 66t11.5 38q5 17 14.5 20.5t18 -1t13 -13.5t-1.5 -17q-5 -7 -13.5 -27.5t-19.5 -53.5 q55 15 110 23t103 4.5t86 -22t59 -55.5q10 -19 4 -36.5t-22.5 -33t-39.5 -28t-47 -22t-45 -14.5t-32 -5q-25 -1 -43 5.5t-27 15t-7 16.5t17 10q12 2 33.5 7.5t46 13.5t48.5 18.5t41.5 21t24.5 21.5t-2 21q-18 18 -52 21.5t-79.5 -4t-99 -24.5t-110.5 -41q-20 -57 -44 -124.5 t-47 -137.5q22 4 43.5 5.5t42.5 1.5q24 -1 52.5 -14.5t50 -35.5t29.5 -50.5t-9 -59.5q-17 -29 -51 -58.5t-78 -56.5t-95.5 -49.5t-103.5 -37.5q-6 -20 -11 -34.5t-7 -21.5q-3 -11 -8.5 -15.5t-10 -4t-6.5 6.5t1 15l15 47q-16 -5 -31.5 -8t-31.5 -5q-7 -21 -12 -37t-7 -23 q-4 -11 -9 -15.5t-9.5 -4t-6.5 6.5t1 15zM188 226q31 7 63 17t67 19q19 57 37 114t35 110q-60 -32 -115 -66.5t-97.5 -68.5t-70 -66t-33.5 -57q-4 -19 10 -22t34 0.5t40.5 10.5t29.5 9zM566 168q36 33 35.5 48.5t-25.5 18t-69 -4.5t-95 -18l-60 -181q56 25 109.5 57.5 t104.5 79.5zM348 270q15 4 30.5 7.5t29.5 5.5l82 251l-59 -28zM322 192q-18 -54 -34.5 -103t-30.5 -93q16 6 32.5 12t33.5 12l60 186z" />
<glyph unicode="%" horiz-adv-x="342" d="M119 359q6 0 17 -5t22 -12.5t19 -16t8 -15.5q-1 -15 -12.5 -29t-26 -24t-29 -15.5t-21.5 -3.5q-7 1 -17.5 6.5t-19.5 13t-15 16t-4 15.5q1 8 9.5 19.5t20 22t25 18.5t24.5 10zM83 274q3 -5 12.5 0.5t19.5 14t17 17t6 11.5q-2 5 -11.5 -0.5t-19.5 -14t-18 -17.5t-6 -11z M14 134q11 9 30 24t42 33t48.5 38.5t49.5 39.5t44.5 36t33.5 29q12 11 21.5 10.5t14 -6.5t3.5 -14.5t-9 -12.5q-12 -6 -32 -19t-44.5 -30t-51 -36t-51.5 -38t-46.5 -35.5t-34.5 -27.5q-8 -8 -14.5 -9.5t-9.5 0.5t-2 7t8 11zM206 234q6 0 17 -5t22 -12.5t18.5 -15.5t7.5 -15 q0 -16 -11 -30t-25.5 -24t-29 -15t-21.5 -3q-8 2 -18 7.5t-19 13t-15 15.5t-5 16q1 7 9.5 18.5t20 22t24.5 18.5t25 9zM170 150q3 -5 12.5 0.5t19.5 14t17.5 17t6.5 10.5q-3 5 -12.5 0t-20 -13.5t-18 -17.5t-5.5 -11z" />
<glyph unicode="&#x26;" horiz-adv-x="458" d="M223 385q-3 -3 -7 -12t-5.5 -21t2 -25.5t15.5 -25.5q18 2 36 3t34.5 1h30h20.5q17 14 31 23t27 9q24 0 49 -19q10 0 24 3t29 6.5t28.5 6.5t21.5 3q11 0 8 -9.5t-11.5 -22t-19.5 -24t-16 -15.5q-5 -3 -16.5 -3.5t-24.5 0.5t-24.5 2t-16.5 1q-7 -9 -22 -24t-32 -33 t-34.5 -37t-30 -35.5t-17.5 -29t2 -17.5q5 -3 22 6.5t40 24.5q13 9 23.5 8t14.5 -7t0 -16.5t-19 -20.5q-19 -13 -36.5 -21t-31.5 -8q-24 0 -38 8.5t-20 22.5t-4.5 33.5t7.5 40.5q-19 -18 -40 -37t-42.5 -34.5t-41.5 -25.5t-37 -10q-27 0 -46 11t-30 28.5t-14.5 38t-0.5 38.5 q5 27 23.5 48t43 37.5t50.5 29t46 21.5q-7 7 -16 16.5t-17.5 20t-14.5 20.5t-7 19q-2 20 17.5 43t46.5 42t55.5 31t44.5 12q22 0 41.5 -13t34.5 -32t24 -40t8 -37q0 -24 -9.5 -31t-20.5 -5t-19.5 10.5t-6.5 15.5q7 36 2 51.5t-15.5 18t-25.5 -5.5t-29.5 -19t-26.5 -22 t-16 -16zM323 276q-20 9 -49 2t-60.5 -22.5t-62 -37.5t-52.5 -43.5t-32.5 -39.5t-2.5 -26q3 -4 21 1.5t43 17.5t54.5 28.5t57 36.5t50 41t33.5 42z" />
<glyph unicode="'" horiz-adv-x="95" d="M44 287q-10 -7 -20 -2t-8 19q1 6 8.5 25.5t17 40.5t20 38t17.5 19q7 1 17 -2.5t19 -10t14.5 -14t4.5 -12.5q0 -6 -11.5 -21t-27 -31.5t-30.5 -30.5t-21 -18z" />
<glyph unicode="(" horiz-adv-x="226" d="M350 479q-43 -27 -89 -74.5t-83.5 -104t-60.5 -116.5t-20 -112q2 -36 -7.5 -37t-23.5 24q-21 34 -21.5 79t14 93t43 95t65.5 85.5t80.5 63.5t88.5 29q44 4 44 -1t-30 -24z" />
<glyph unicode=")" horiz-adv-x="259" d="M-76 94q43 27 89 74.5t83.5 103.5t61 115.5t20.5 112.5q-2 36 7.5 37t23.5 -23q21 -34 21.5 -79t-14 -93.5t-43 -95.5t-65.5 -85.5t-80.5 -63.5t-88.5 -29q-22 -2 -32.5 -1.5t-11.5 3.5t6.5 8.5t22.5 15.5z" />
<glyph unicode="*" horiz-adv-x="264" d="M216 316q-1 -3 -8.5 -7.5t-18 -9t-22.5 -9t-22 -8.5q9 -3 20.5 -7.5t21 -9t16 -9t6.5 -8.5q-2 -5 -7.5 -12t-12 -13t-13 -10t-10.5 -4q-3 0 -8.5 6t-11.5 14.5t-11.5 18.5t-9.5 18q0 -10 -0.5 -23t-2 -25t-4 -21t-5.5 -11q-5 -2 -13 -1.5t-15.5 3.5t-13 7t-5.5 8 q-2 4 4.5 17.5t17.5 27.5q-14 -14 -27 -23.5t-18 -9.5q-5 1 -9.5 6t-7.5 11t-4 12.5t1 9.5q1 3 8 7t17.5 7.5t22 7.5t21.5 7q-19 5 -37 12.5t-20 15.5q0 5 3 12t8 13.5t10.5 10.5t9.5 3q3 0 8 -4.5t11 -11t12.5 -14.5t12.5 -15q-1 20 0 44t8 29q5 2 12.5 1t15 -3.5 t13.5 -6.5t7 -8t-3.5 -14t-11.5 -22q10 12 19.5 21t14.5 9q5 -1 11 -6t11 -11t7.5 -12.5t1.5 -9.5z" />
<glyph unicode="+" d="M74 202q-14 0 -26.5 0.5t-18.5 0.5q-8 0 -8 4.5t5 10.5t14 10.5t20 4.5h26q12 29 17 55q2 7 11.5 6.5t19.5 -6.5t17.5 -15.5t5.5 -20.5l-2 -10t-3 -10q12 0 23 0.5t18 1.5q8 1 9.5 -3t-1.5 -9t-11 -10t-18 -7l-29 -3q-5 -18 -11.5 -33t-9.5 -24q-3 -7 -12.5 -4.5 t-19.5 10t-16.5 18.5t-2.5 22z" />
<glyph unicode="," horiz-adv-x="121" d="M-4 80q-10 -6 -20 -1.5t-8 18.5q1 6 8.5 25.5t17 41t20 38.5t17.5 19q7 1 17 -3t19 -10.5t14.5 -13.5t4.5 -13q0 -6 -11.5 -21t-27 -31.5t-30.5 -30.5t-21 -18z" />
<glyph unicode="-" horiz-adv-x="222" d="M60 233q26 0 54.5 0.5t48.5 2.5q8 1 9.5 -2.5t-1.5 -9t-11 -10.5t-18 -6q-32 -6 -64 -5.5t-49 0.5q-8 0 -8 4.5t5 10.5t14 10.5t20 4.5z" />
<glyph unicode="." horiz-adv-x="114" d="M34 124q-6 0 -15 3t-16.5 8t-12 11.5t-3.5 13.5q1 6 5.5 15.5t10.5 19t13.5 17t14.5 9.5q7 1 17 -3t19 -10.5t14.5 -13.5t4.5 -13q0 -6 -6 -15t-14 -18t-17 -16t-15 -8z" />
<glyph unicode="/" horiz-adv-x="307" d="M-20 59q10 11 35.5 39.5t59 67t71.5 81.5t72.5 82t62 70.5t39.5 45.5q12 13 22 12.5t16 -7.5t6 -17t-8 -15q-12 -7 -39.5 -33.5t-63 -63t-74.5 -79t-74.5 -81.5t-63.5 -69.5t-40 -44.5q-8 -9 -14.5 -11t-10.5 1t-3.5 9t7.5 13z" />
<glyph unicode="0" horiz-adv-x="236" d="M127 314q9 1 23.5 -4.5t29 -15t25 -22t11.5 -24.5q3 -26 -12.5 -53t-37.5 -48.5t-44 -34t-34 -9.5t-27.5 10.5t-29 18t-22.5 23.5t-9 27q0 13 13.5 35t33 43t41.5 37t39 17zM48 146q5 -6 16 -0.5t25 18t28.5 29t26 32.5t18.5 28t5 16q-4 6 -15 0.5t-25 -18t-29 -29.5 t-27 -33t-19 -28t-4 -15z" />
<glyph unicode="1" horiz-adv-x="198" d="M193 284q-3 -9 -13 -25t-23.5 -35.5t-28.5 -40t-29.5 -38.5t-26 -31t-17.5 -18t-18 -5t-22 3.5t-14.5 10t3.5 16.5q3 3 10 14t17.5 27t23.5 34.5t27 36.5q-12 -9 -24.5 -11.5t-21.5 -1t-12 6t4 9.5q3 2 12 7.5t20.5 13t24 17.5t24.5 22q12 15 19 20q5 1 16.5 -1.5 t23 -7.5t19.5 -11t6 -12z" />
<glyph unicode="2" horiz-adv-x="227" d="M4 151q2 1 3.5 2t3.5 1q19 10 46 28.5t52 37t42 34t16 18.5q-2 6 -19.5 1t-40.5 -16.5t-46.5 -28t-36.5 -34.5q-3 -4 -8.5 2.5t-8 19t1 30t17.5 35.5q10 12 26 20.5t33 14.5t32 8.5t22 1.5q9 -2 22 -11t25 -22t19 -27t4 -25q-5 -18 -26 -37t-49 -36t-58.5 -31t-53.5 -21 q48 -17 78 -4t50 45q2 4 13.5 0.5t21.5 -12t12.5 -21t-12.5 -27.5q-27 -27 -53.5 -27.5t-52 8t-50 17.5t-46.5 3q-9 -3 -12 3t-0.5 15t11 19t22.5 16z" />
<glyph unicode="3" horiz-adv-x="227" d="M107 232q28 12 48.5 23.5t19.5 16.5q-2 6 -17.5 3t-36.5 -12.5t-42.5 -24.5t-34.5 -32q-3 -5 -10.5 -0.5t-12 15.5t-3.5 26.5t16 33.5q10 12 26 20.5t32.5 14.5t31.5 8.5t22 1.5q9 -2 22 -11t25 -22t19.5 -27t4.5 -25q-5 -17 -20 -25t-40 -19q14 -11 21.5 -20.5 t11.5 -19.5q3 -11 -10 -25.5t-31 -27.5t-37 -21.5t-29 -8.5q-18 0 -34 10.5t-28 25t-19 30t-7 26.5q0 15 3 20.5t6.5 5.5t6.5 -3.5t5 -7.5q10 -35 24 -43.5t27.5 -4.5t25 14.5t15.5 15.5l5.5 5.5t5 8t-0.5 11t-10 14.5q-3 3 -8 5.5t-7 6.5t0 8t14 10z" />
<glyph unicode="4" horiz-adv-x="227" d="M251 283q-3 -9 -14 -25.5t-25.5 -36.5t-31 -41.5t-32 -40t-28.5 -32t-19 -18.5t-18 -5.5t-21.5 2.5t-14.5 9.5t3 17.5l30 47q-15 -8 -27.5 -12.5t-20.5 -1.5q-11 5 -18.5 16t-10.5 24t-2.5 25.5t4.5 21.5q9 19 18.5 37.5t32.5 39.5q7 6 21.5 5.5t28.5 -4.5t23 -11t4 -13 q-11 -14 -27.5 -31t-31 -32t-24.5 -27t-9 -15q1 -4 9.5 -0.5t20.5 10.5t26 16.5t28 17.5q20 30 38.5 55.5t27.5 32.5q4 4 14.5 1.5t21.5 -7.5t18.5 -12t5.5 -13z" />
<glyph unicode="5" horiz-adv-x="228" d="M103 163q16 16 6 27.5t-27.5 19t-33.5 12t-12 7.5q-8 6 -8 13q-1 7 5 18t15 22t20 20t21 12h9q16 0 34 -3.5t35 -7t32 -6t24 -2.5q9 1 9 -8.5t-7 -21.5t-18.5 -22t-25.5 -10q-11 0 -22 15.5t-25 31.5q-5 -14 -16.5 -25t-22.5 -28q17 0 32.5 -6.5t27.5 -16t19.5 -22 t9.5 -25.5q1 -14 -12 -28.5t-31 -26.5t-36 -20t-28 -8q-18 0 -34 10.5t-28 25t-19 30t-7 26.5q0 15 3 20.5t6.5 5.5t7 -3.5t4.5 -7.5q10 -35 24 -43.5t28 -4.5t25 14.5t16 15.5z" />
<glyph unicode="6" horiz-adv-x="227" d="M-7 142q0 25 10 55t29 55.5t46 43.5t61 20q18 1 31 -6.5t19 -17.5t5 -18t-10 -8q-11 0 -32 -5.5t-44.5 -17.5t-44.5 -31t-32 -46q14 19 34.5 35.5t42 28.5t40 17t28.5 1q12 -5 20 -18t12 -28.5t4 -30t-4 -22.5q-5 -10 -22.5 -22.5t-39.5 -23t-44.5 -18t-37.5 -7.5 q-29 -2 -43 10.5t-16 24.5q-5 7 -8.5 15t-3.5 14zM35 132q24 5 50.5 15t48.5 21t35.5 21t10.5 15q-1 2 -17.5 -3.5t-39 -16t-47 -24t-40.5 -27.5z" />
<glyph unicode="7" horiz-adv-x="227" d="M238 283q-3 -9 -16.5 -25.5t-32.5 -36.5t-41.5 -41.5t-42.5 -40t-36 -32t-22 -18.5t-17.5 -5.5t-21.5 2.5t-15 9.5t3 17.5q3 4 19.5 23t39 44t47 52t43.5 48q-15 -7 -31 -16t-30.5 -17t-26.5 -13.5t-19 -5.5q-14 0 -17.5 13t-1 28.5t10 28.5t16.5 12q8 -1 25 0t37.5 2.5 l41 3t35.5 1.5q2 0 2 -1q7 -1 16.5 -4.5t17.5 -8.5t13 -10.5t4 -9.5z" />
<glyph unicode="8" horiz-adv-x="227" d="M122 320q10 1 27.5 -4.5t33.5 -14.5t28 -21t12 -23q-2 -32 -19 -49t-37 -22q7 -8 12 -15t5 -14q-2 -19 -10.5 -33.5t-20 -24t-25 -14.5t-24.5 -5q-14 0 -34.5 5.5t-40.5 15.5t-34 22t-14 26q0 12 6.5 25.5t17.5 25.5t26.5 20.5t33.5 11.5q-16 16 -16 32q0 7 7 17 t17.5 18.5t23.5 14.5t25 6zM42 128q10 -12 27 -5t31 20.5t21 28.5t-2 20q-8 4 -22 -4t-27 -20t-22 -24.5t-6 -15.5zM104 228q12 -9 26.5 -4.5t25.5 15t15.5 22t-3.5 15.5q-9 5 -21.5 -0.5t-23 -15.5t-16.5 -19.5t-3 -12.5z" />
<glyph unicode="9" horiz-adv-x="224" d="M218 242q-5 -14 -19.5 -36.5t-32.5 -46t-35 -43.5t-27 -27q-6 -5 -17 -5.5t-21 2.5t-15 9.5t3 17.5q2 4 9 14t17 25q-30 -11 -44 -6q-11 5 -18.5 19.5t-10.5 31.5t-3 33t4 24q5 10 22.5 22.5t39.5 23t44.5 18t37.5 7.5q23 1 36.5 -6.5t19 -17.5t4.5 -18.5t-6 -8.5t-10 -1 l-10 -2q12 -2 23.5 -11.5t8.5 -17.5zM36 199q1 -2 11 0.5t25 7t31.5 11t30.5 12.5q11 13 19.5 23t14.5 15q-23 -6 -47.5 -16t-44.5 -20t-31.5 -19.5t-8.5 -13.5z" />
<glyph unicode=":" horiz-adv-x="157" d="M34 124q-6 0 -15 3t-16.5 8t-12 11.5t-3.5 13.5q1 6 5.5 15.5t10.5 19t13.5 17t14.5 9.5q7 1 17 -3t19 -10.5t14.5 -13.5t4.5 -13q0 -6 -6 -15t-14 -18t-17 -16t-15 -8zM104 244q-6 0 -14.5 3t-16 8t-12 11.5t-3.5 13.5q1 6 5.5 15.5t10.5 19t13.5 17t14.5 9.5q7 1 17 -3 t19 -10.5t14.5 -13.5t4.5 -13q0 -6 -6 -15t-14 -18t-17.5 -16t-15.5 -8z" />
<glyph unicode=";" horiz-adv-x="157" d="M104 244q-6 0 -14.5 3t-16 8t-12 11.5t-3.5 13.5q1 6 5.5 15.5t10.5 19t13.5 17t14.5 9.5q7 1 17 -3t19 -10.5t14.5 -13.5t4.5 -13q0 -6 -6 -15t-14 -18t-17.5 -16t-15.5 -8zM-4 80q-10 -6 -20 -1.5t-8 18.5q1 6 8.5 25.5t17 41t20 38.5t17.5 19q7 1 17 -3t19 -10.5 t14.5 -13.5t4.5 -13q0 -6 -11.5 -21t-27 -31.5t-30.5 -30.5t-21 -18z" />
<glyph unicode="&#x3c;" horiz-adv-x="172" d="M134 302q7 0 10 -7.5t4 -17.5t-1 -20.5t-5 -16.5t-13.5 -15t-24 -18l-27 -18t-22.5 -16q8 -4 17.5 -3.5t18 1.5t15 0.5t8.5 -5.5t0 -12.5t-5.5 -13.5t-9 -10.5t-9.5 -3.5q-11 1 -24 9.5t-24.5 20.5t-18 25.5t-3.5 24.5q2 7 17.5 23.5t34.5 33t37 28.5t25 11z" />
<glyph unicode="=" horiz-adv-x="236" d="M46 214q25 0 53.5 0.5t49.5 2.5q7 1 9 -2.5t-1.5 -9t-11 -10.5t-18.5 -7q-32 -5 -64 -4.5t-49 0.5q-8 0 -8 4.5t5.5 10.5t14.5 10.5t20 4.5zM78 260q26 0 54.5 0.5t48.5 3.5q8 1 9.5 -3t-1.5 -9t-11 -10t-18 -7q-32 -5 -64 -5h-49q-8 0 -8 4.5t5 10.5t14 10.5t20 4.5z " />
<glyph unicode="&#x3e;" horiz-adv-x="172" d="M29 125q-7 0 -10 8t-4 18t1 20t6 16q3 6 13.5 15t23.5 18t26.5 18t22.5 16q-8 4 -17 3.5t-17.5 -1.5t-15.5 -0.5t-9 6.5q-2 5 0 12t5.5 13.5t8.5 10.5t10 3q10 -1 23.5 -9.5t25 -20.5t18 -25.5t3.5 -24.5q-2 -7 -17.5 -23t-34.5 -32.5t-37 -28.5t-25 -12z" />
<glyph unicode="?" horiz-adv-x="283" d="M46 100q6 1 15 8t17 16t14 18t6 15q1 6 -4.5 13t-14.5 13.5t-19 10.5t-17 3q-7 -2 -14.5 -9.5t-13.5 -17t-10.5 -19t-5.5 -15.5q-1 -7 3.5 -13.5t12 -11.5t16.5 -8t15 -3zM109 287q12 25 35.5 47.5t51 42t57 35.5t53 28t38.5 19.5t14 9.5q-2 6 -23 1t-49 -17t-56 -28.5 t-44 -34.5q-4 -5 -12.5 2t-14 20.5t-3 31.5t19.5 36q11 12 30.5 21t40 15t38.5 9t27 2q18 -2 39.5 -15t37.5 -29.5t23.5 -33.5t-2.5 -28q-3 -10 -20 -22.5t-42 -26t-54.5 -28t-58 -28.5t-52 -27.5t-35.5 -25.5q-8 -7 -16 -7t-14 4.5t-9 12t0 14.5z" />
<glyph unicode="@" horiz-adv-x="560" d="M361 166q2 -2 14.5 6.5t26 23.5t24.5 34.5t12 40.5t-12.5 41.5t-49.5 37.5q-39 18 -76 16t-69 -16.5t-57.5 -38t-41.5 -47.5q-19 -28 -23.5 -55.5t2.5 -51.5t23.5 -43t40 -30.5t51.5 -13t58 8.5q13 4 25 2t17 -8t0.5 -14.5t-25.5 -17.5q-39 -17 -79.5 -15t-77 18.5 t-65.5 44.5t-44.5 62.5t-15 71.5t23.5 73q50 79 137 102.5t221 -22.5q46 -16 72.5 -41.5t35.5 -53.5t3.5 -56.5t-23 -51.5t-45.5 -38t-62 -15q-13 0 -37 5.5t-40 19.5q-13 -9 -25.5 -17.5t-23.5 -12.5q-11 -2 -27 1t-31.5 11.5t-28 20.5t-15.5 28q-4 17 8.5 40.5t30.5 44.5 t37 36.5t30 16.5q7 1 18 -1t21.5 -7t19 -12t11.5 -16q13 13 24 11q17 -5 34 -12.5t15 -22.5q0 -8 -8 -21.5t-17 -27.5t-15 -25t-2 -14zM220 151q11 -6 27 6.5t31 31.5t25.5 39t10.5 30q-4 9 -13.5 5t-21.5 -15t-24.5 -27t-21.5 -30.5t-13.5 -26t0.5 -13.5z" />
<glyph unicode="A" horiz-adv-x="839" d="M55 94q53 91 136.5 177t183 153.5t207.5 108.5t210 41q34 0 60 -7t41 -21t18.5 -36t-7.5 -53q-12 -34 -34.5 -79t-50 -92.5t-57.5 -95t-56.5 -87t-47 -67.5t-29.5 -38q-7 -9 -24.5 -12t-34 -0.5t-26 9.5t-0.5 19q14 20 30.5 43.5t33 48.5t32 49.5t27.5 46.5 q-74 -13 -143.5 -29.5t-136.5 -37t-133.5 -46t-134.5 -55.5q-13 -24 -18.5 -41t-10.5 -31q-2 -4 -10.5 -4.5t-19 2.5t-20 8t-12.5 12q-6 12 -4.5 27.5t6.5 32t12.5 31t12.5 23.5zM697 260q17 27 38.5 59.5t40.5 64.5t34 62t19 53t-5.5 37t-38.5 14q-59 0 -120.5 -23 t-123 -61.5t-120 -88t-111 -102.5t-96.5 -105.5t-76 -95.5q52 27 122 56t146.5 54.5t152 45.5t138.5 30z" />
<glyph unicode="B" horiz-adv-x="792" d="M905 604q24 -22 18 -47t-31 -51t-62 -51t-75.5 -47t-72 -39t-50.5 -26q31 -4 56 -21.5t36 -41.5q12 -29 6 -59.5t-23.5 -60.5t-43.5 -57.5t-54.5 -51t-56 -42t-47.5 -28.5q-79 -42 -152 -66.5t-133.5 -31.5t-106 2.5t-69 36.5t-22.5 70t33 103q4 7 18.5 10t29.5 2.5 t25 -5.5t5 -14q-6 -11 -19 -31t-23.5 -43.5t-14 -46.5t11.5 -39q14 -16 48.5 -15t81.5 15.5t101.5 39t109 56t103.5 66t85 69t54.5 66.5t10.5 56q-7 22 -30 27.5t-54.5 0.5t-66.5 -17t-67.5 -24.5t-57.5 -23.5t-35 -14q-20 -29 -37 -65t-33 -68q-2 -5 -7.5 -4t-11.5 4.5 t-11 8t-6 6.5q-3 5 -3 14.5t1.5 20.5t4.5 22.5t6 20.5q-8 -4 -20.5 -6t-22.5 0.5t-13 11t8 26.5q3 5 15 12.5t26 15t25.5 13.5t14.5 8q12 19 21.5 38t18 35.5t15 28t11.5 15.5q4 3 12.5 3t18.5 -2t18 -5.5t11 -7.5q7 -11 0 -26.5t-12 -29.5q14 3 56.5 21t96.5 44t111 57 t102 60.5t69 54.5t12 38q-14 14 -52 13t-92.5 -13.5t-120 -34.5t-133 -50.5t-132.5 -61t-118.5 -66t-91.5 -65.5t-50 -60q-4 -8 -14 1.5t-15 29.5t0.5 47t34.5 53q39 36 104.5 75.5t144 75t163 62.5t163 39t143 5t103.5 -41z" />
<glyph unicode="C" horiz-adv-x="548" d="M37 74q-26 61 -5.5 126t74 129.5t133 124t171.5 109.5t189 86.5t185 54t161 12.5t116 -38q35 -27 37.5 -55.5t-18.5 -56.5t-59.5 -55t-86 -51t-98 -45t-95 -36.5t-77.5 -24.5t-45 -11q-10 -1 -19.5 8t-15 20.5t-4.5 22.5t13 13q-2 0 21 6.5t60.5 18.5t85 28t95.5 35 t91 39.5t71.5 41.5t38 41.5t-10.5 38.5q-29 27 -91.5 23.5t-144.5 -28.5t-175.5 -68t-183 -96.5t-168 -114t-130.5 -119t-70.5 -112t12.5 -94.5q15 -21 47 -23.5t72.5 7.5t86 29t88 41t79 45t59.5 41q6 5 7.5 3t0 -8.5t-6 -16.5t-10.5 -20q-18 -30 -54 -62.5t-81 -59.5 t-95 -43.5t-97.5 -14.5t-87.5 27t-65 82z" />
<glyph unicode="D" horiz-adv-x="1009" d="M244 541q56 40 125 66.5t141.5 39.5t144.5 11t133.5 -19.5t109 -50.5t72.5 -82q24 -50 21.5 -102t-23.5 -103.5t-58 -99.5t-83 -89q-71 -63 -163.5 -114.5t-194.5 -78.5t-208 -24.5t-203 47.5q-21 10 -35 20t-16.5 16t8 5.5t39.5 -11.5q66 -27 140.5 -27.5t146.5 15.5 q-2 34 6.5 81.5t23.5 99t35.5 102.5t42 92.5t42 69t37.5 32.5q16 4 33 4t29.5 -3.5t18 -10t-1.5 -13.5q-19 -22 -48 -69t-58 -107.5t-54 -128t-35 -131.5q74 19 150.5 58t144.5 89.5t122.5 108.5t84 115t29.5 108.5t-41 88.5q-35 33 -89.5 45.5t-119 9t-134.5 -21t-136 -45 t-124 -63t-99 -74.5q-10 -9 -15 4.5t-2 37.5t17.5 52.5t43.5 49.5z" />
<glyph unicode="E" horiz-adv-x="784" d="M76 227q-12 51 15.5 100.5t82 95t129.5 84.5t157.5 68.5t166 47t155.5 20t125.5 -12t76.5 -49.5q17 -26 13 -53.5t-20.5 -51t-39.5 -40.5t-43 -23q-21 -6 -38 -2t-28 12t-14.5 16.5t4.5 11.5q15 6 43.5 20.5t53 32.5t38 37t0.5 35q-15 18 -52.5 21t-89.5 -5t-113 -24.5 t-122.5 -37.5t-119 -45t-100.5 -46q-19 -9 -45.5 -24t-55.5 -34t-56.5 -41t-46.5 -45t-27.5 -47t0.5 -46q7 -17 25 -22.5t38 -5t38 4t24 3.5q55 31 106 51t93.5 30.5t74.5 12t50 -5.5q25 -9 12 -26t-50 -36t-90 -36t-106 -26q-13 -3 -37 -16t-51.5 -31.5t-54.5 -41 t-46 -44.5t-27.5 -41.5t2.5 -33.5q13 -18 51 -13.5t90.5 22.5t115 47.5t124.5 62t119 65t99 58.5q9 6 16.5 9.5t10.5 3t0.5 -7t-13.5 -19.5q-14 -17 -52 -51t-91 -71.5t-116.5 -74t-127 -59.5t-123 -27t-105.5 23q-32 18 -45.5 46t-7 60t33.5 66.5t77 65.5q-38 8 -68.5 29.5 t-37.5 53.5z" />
<glyph unicode="F" horiz-adv-x="636" d="M194 144q-61 0 -93 21.5t-35.5 57.5t20 83t72.5 97t122.5 99.5t169.5 90.5q60 26 123 44.5t123 28.5t114 11t97 -8t72.5 -28.5t39.5 -50.5q7 -22 -3 -44.5t-31 -43.5t-50 -39.5t-60 -33t-61.5 -24t-53.5 -11.5q-42 -5 -66 6.5t-29 25.5q19 2 51.5 10.5t70 21t74.5 29 t64.5 35t41.5 38t4 39.5q-8 16 -33.5 22t-62.5 4t-84 -12t-99 -24.5t-106.5 -33t-106.5 -39.5q-85 -34 -152 -75.5t-113 -83t-70 -79t-25.5 -64.5t21 -39t71.5 -2q9 14 25 40.5t32 55.5t29.5 57.5t19.5 47.5q3 13 15.5 15.5t25 -3t22 -16.5t8.5 -26q-5 -34 -24.5 -69 t-45.5 -72q23 7 46 20.5t44.5 28t41 28t34.5 21.5q10 5 29 4t34.5 -7t21 -16.5t-10.5 -25.5q-25 -21 -56.5 -37.5t-66 -28.5t-70.5 -20t-69 -12q-14 -21 -33 -53t-38.5 -64t-36.5 -58.5t-26 -35.5q-19 -18 -40 -29.5t-38 -16.5t-26 -3t-4 10q9 14 29 46.5t41.5 69.5t41 70.5 t28.5 49.5z" />
<glyph unicode="G" horiz-adv-x="688" d="M62 60q-33 68 -18 135t63.5 127.5t123 113t159.5 92.5t174 65t167 30t137.5 -11t85.5 -59q8 -14 4 -28t-16 -27.5t-30 -25t-37.5 -20.5t-38 -14t-31.5 -5q-22 0 -36 7t-21 15t-7.5 15.5t4.5 9.5q16 4 46.5 11.5t59.5 18.5t47.5 25.5t9.5 34.5q-7 14 -35 17.5t-63 0 t-71.5 -11.5t-61.5 -16q-61 -19 -133.5 -49.5t-143.5 -69.5t-135.5 -84t-110 -93t-66 -96.5t-4.5 -94.5q9 -25 31.5 -38t53 -17t66.5 0t70.5 14.5t65.5 26t53 33.5q18 30 38.5 59.5t41.5 54.5t42 45.5t40 32.5q10 7 23 8.5t23 -1t15.5 -7.5t2.5 -9q-44 -60 -81.5 -114.5 t-70 -110t-61.5 -115t-57 -129.5q-3 -7 -10 -4t-14 12.5t-12 24.5t-4 33q3 70 37 136q-38 -18 -85 -26t-92.5 -3t-82.5 25t-55 56z" />
<glyph unicode="H" horiz-adv-x="920" d="M792 283q32 44 70.5 93t76.5 94t71.5 81.5t55.5 55.5q9 9 30 12t40.5 1t30.5 -9t1 -19q-63 -71 -136.5 -145t-140 -154t-117.5 -166.5t-70 -182.5q-1 -6 -14 -13t-28 -8.5t-27 5.5t-12 28q0 36 14 78.5t35.5 84t46.5 77.5t47 60q-130 -25 -255 -52.5t-253 -55.5 q-30 -53 -53.5 -84t-41 -44.5t-28.5 -10.5t-17 17q-2 6 5 19.5t17.5 29.5t20.5 31t15 24q-9 -2 -22.5 -6t-27 -8.5t-26.5 -9.5t-22 -9q-7 -3 -5.5 9t10 27.5t23 30t34.5 16.5l63 6q25 39 50.5 82t53 85.5t58 83t67.5 73.5q8 7 22.5 12.5t31.5 9t32.5 4.5t25.5 -1.5t11 -8.5 t-11 -16q-24 -19 -57 -53t-68 -77t-69.5 -90.5t-60.5 -92.5q135 22 256.5 42t246.5 44z" />
<glyph unicode="I" horiz-adv-x="566" d="M377 535q24 6 54.5 14t62.5 16.5t63.5 16.5t57 15t42.5 11.5t21 5.5t14 -3.5t19.5 -11.5t14.5 -14t1 -11q-34 -33 -70 -86t-74 -114.5t-78 -126t-81.5 -120.5t-84 -98t-86.5 -58q-29 -11 -56.5 -9.5t-50.5 13t-42 31.5t-32 46q-6 12 0.5 13.5t12.5 -9.5q29 -43 63 -49 t68 10t63.5 45.5t49.5 57.5q43 61 82.5 119.5t77.5 115.5t77 112t80 109q-40 -10 -79 -25t-77 -31t-76.5 -31t-77.5 -25q-29 -7 -33.5 1.5t5.5 22.5t29.5 28t39.5 19z" />
<glyph unicode="J" horiz-adv-x="821" d="M377 350q75 42 162.5 85t179 83t182.5 74t174 58q26 7 26 -0.5t-14.5 -21.5t-38 -30.5t-45.5 -27.5q-56 -63 -109 -139.5t-107 -155t-111.5 -153t-123 -132t-140.5 -92.5t-165 -35q-36 0 -71.5 10.5t-63 30t-42.5 47t-10 60.5q2 14 14.5 18.5t26 1.5t23.5 -11.5t7 -19.5 q-8 -31 1 -53t30 -34.5t52 -15t66 4.5t72 24.5t70 44.5q71 58 131.5 125t116 138.5t108.5 144.5t110 144q-31 -13 -76.5 -34.5t-98.5 -47.5t-109 -54.5t-109 -54.5t-98.5 -47.5t-76.5 -33.5q-8 -4 -7.5 7t8 28t22 35t34.5 29z" />
<glyph unicode="K" horiz-adv-x="685" d="M212 181q36 11 90 7.5t115.5 -16.5t126.5 -32.5t123.5 -40t105.5 -39.5t73 -32q7 -4 10.5 -8.5t0.5 -6.5t-14 -0.5t-33 10.5q-43 17 -93.5 34.5t-105.5 33t-111.5 28t-110.5 19.5t-103 7.5t-89 -7.5q-10 -2 -24.5 4t-23.5 14q-5 -11 -12 -25.5t-15 -28.5t-16 -25.5 t-14 -16.5q-9 -8 -22.5 -13t-25 -7.5t-19 -1t-5.5 7.5q19 46 45.5 110t59.5 130t72.5 125.5t86.5 96.5q17 13 34 12.5t30 -6.5t19 -15t0 -14q-23 -21 -47.5 -48.5t-48.5 -59.5t-44.5 -67.5t-35.5 -71.5q40 24 87 49t95.5 49.5t96.5 48t90 43.5q81 40 162 84.5t165 81.5 q8 4 9.5 -7.5t-3.5 -30t-16.5 -39.5t-29.5 -36q-25 -21 -67 -42t-95 -44t-114 -47t-123.5 -50.5t-123 -55.5t-112.5 -61z" />
<glyph unicode="L" horiz-adv-x="630" d="M217 130q83 16 169.5 15t165.5 -19t144 -51.5t104 -81.5q17 -21 16 -32t-16 5q-47 55 -123 90.5t-167 46.5t-190 -5.5t-192 -65.5q-12 -7 -24.5 -14t-25 -10.5t-24.5 -1.5t-24 13q-11 9 -12.5 15.5t2 12.5t11.5 12t17 12q45 40 90.5 91.5t92.5 105.5t97.5 108t105 100 t115 80t128.5 49q36 7 65 4t47 -10t23 -13.5t-8 -5.5q-63 2 -120 -21t-109.5 -61t-100.5 -87t-92 -100t-85.5 -98.5t-79.5 -82.5z" />
<glyph unicode="M" horiz-adv-x="942" d="M358 91q14 0 46 19t75.5 51t96 74t106.5 88t108 92.5t100.5 88.5t83 75t56.5 52q7 7 16.5 2t16.5 -16.5t8.5 -26.5t-5.5 -28q-34 -57 -78 -128.5t-90 -145t-90.5 -142t-77.5 -118t-51.5 -73.5t-12.5 -9q-2 -5 -10 2t-14.5 22.5t-7 38.5t13.5 52q16 34 47.5 76t69 88 t76.5 94.5t71 95.5q-47 -42 -103 -86.5t-117.5 -89.5t-126.5 -88t-131 -81q-38 -22 -61.5 -19t-37 20t-18.5 42t-5 47q0 73 6.5 143t12.5 145q-13 -23 -34 -54t-45 -66.5t-49 -74t-48 -75t-42 -70t-29 -58.5q-3 -7 -13 -3t-17.5 19t-8.5 41t16 63q14 31 36.5 70.5t48 80.5 t52 81t49.5 71.5t40.5 51.5t24.5 22q5 2 12 -1t12 -10l-1 135q0 11 12.5 13.5t28.5 -6t29 -28t15 -51.5q1 -22 -7 -68t-19.5 -102.5t-24 -116t-19.5 -109t-6.5 -81t14.5 -31.5z" />
<glyph unicode="N" horiz-adv-x="845" d="M292 502q5 2 12 -2q6 45 16.5 93.5t27 86t40.5 56.5t58 6q-26 -103 -48 -207t-30 -210q-1 -21 -2 -49.5t2 -58t11.5 -57.5t24.5 -49t41 -31.5t63 -5.5q42 6 82 46.5t78 99.5t73.5 129.5t69.5 138t66.5 124t64.5 88.5q21 21 47 29t47.5 8.5t34 -4.5t5.5 -11 q-45 -37 -86.5 -104t-83 -145.5t-85.5 -158.5t-94 -143t-109 -99.5t-130 -27.5q-43 5 -75 26.5t-54.5 53t-36.5 71t-21 80.5t-8.5 81t2.5 74v4q-29 -41 -60.5 -87.5t-60 -95t-51 -97.5t-34.5 -95q0 -14 -10.5 -12t-22 15.5t-18 37.5t1.5 56q5 23 19 55t34 68t44 72t50 66.5 t53 53t52 31.5z" />
<glyph unicode="O" horiz-adv-x="844" d="M577 624q58 28 105 28t81 -21t53.5 -59.5t23 -88.5t-10 -108t-45.5 -118q-33 -60 -80.5 -112t-106 -92t-124.5 -66t-136 -34q-42 -5 -83.5 3.5t-78 28t-66 49t-48.5 68.5q-24 48 -14.5 99t41.5 100t81 93.5t105 80.5t113.5 61.5t106.5 35.5q8 11 27 23t56 29zM600 575 q17 -3 27.5 -7t10 -9.5t-14.5 -11t-45 -9.5q-40 -6 -77.5 -19.5t-72 -31.5t-66.5 -39t-60 -42q-27 -20 -60 -52.5t-63 -70.5t-51.5 -78.5t-25.5 -78.5t15 -69.5t71 -51.5q62 -24 129 -12.5t131.5 47t123.5 90.5t105.5 119t76 131.5t36.5 128.5q5 46 -7 69.5t-35 31t-53.5 1 t-63.5 -21.5z" />
<glyph unicode="P" horiz-adv-x="973" d="M103 59q-2 27 14 61.5t42.5 71.5t60 73.5t65.5 69t58.5 57.5t40.5 38q15 14 36 19t38.5 4t28.5 -5.5t7 -8.5q-19 -21 -49 -52.5t-64.5 -69t-70 -78.5t-65.5 -82t-51 -79.5t-27 -71.5q-1 -7 -10.5 -2t-21 15.5t-21 22t-11.5 17.5zM500 590q171 31 288.5 27t177.5 -37 q58 -33 71 -85t-12.5 -108.5t-85.5 -111t-147 -91.5q-102 -44 -204.5 -57.5t-214.5 -4.5q-7 1 -16 6.5t-15 11.5t-6.5 10.5t11.5 4.5q36 0 83 5t99 16t105.5 28t102.5 40q32 15 66 39t64 53t54.5 60t37.5 61t12 56t-21 44q-25 23 -72 31t-107 5t-129.5 -16.5t-138.5 -34.5 t-134 -48.5t-116.5 -58t-86 -63.5t-42.5 -66q-1 -4 -7.5 -4t-15 3t-17.5 8.5t-14 12.5q-22 29 -13 57t39 54.5t77.5 50t102.5 43t113 34.5t111 25z" />
<glyph unicode="Q" horiz-adv-x="790" d="M539 131q69 -23 162 -34.5t190.5 -14t192 4.5t166.5 21q9 2 11 -8.5t-6.5 -25t-30.5 -29.5t-61 -23q-60 -12 -137.5 -8t-163.5 19t-175 37t-171 46q-45 -27 -93 -42.5t-96 -17t-95.5 11.5t-92.5 42q-42 27 -62.5 59.5t-23 68t13.5 73t48 73.5q34 39 78 73.5t94 62.5 t104 47t108.5 26t107 0.5t100.5 -29.5q32 -6 61 -25.5t41 -50.5q12 -34 3 -69.5t-31 -70.5t-54 -67.5t-66 -61t-66.5 -51t-55.5 -37.5zM202 355q-61 -51 -79.5 -94t-7.5 -74.5t46 -51.5t81 -26t97.5 2.5t96.5 34.5q-35 12 -68 20t-65.5 11.5t-66 2.5t-70.5 -8 q-11 -4 -18 -0.5t-11 9t-5 11.5t2 7q59 18 122 12q56 -5 102.5 -18t98.5 -32q15 9 51.5 34t79.5 58.5t85.5 72.5t70 76.5t33 70t-26.5 53.5q-22 13 -50 14t-57 -6.5t-56.5 -20.5t-47.5 -28q-8 -6 -23 -9t-27.5 -2.5t-17 5t8.5 14.5q23 19 49 32.5t54 24.5 q-110 -18 -202.5 -70t-178.5 -125z" />
<glyph unicode="R" horiz-adv-x="787" d="M485 115l76.5 -9t87 -9.5t88.5 -8.5t82.5 -6t68.5 -2.5t46 2.5q15 3 13 -7.5t-16 -24t-38 -25.5t-53 -12q-58 0 -107 10t-97 23.5t-97.5 26.5t-107.5 19q-20 -7 -43 -12t-47 -6.5t-48 2.5t-45 16q-7 -8 -17.5 -20.5t-20.5 -27.5t-17.5 -30t-8.5 -28q-1 -11 -12.5 -8.5 t-22.5 15t-16 34.5t7 50q8 20 29 46t48 54t58 56t59.5 53t52.5 44t37 30q15 12 35.5 15.5t37.5 2t25 -7.5t-2 -14q-21 -16 -53.5 -44.5t-68.5 -63t-71.5 -71t-62.5 -67.5q38 2 93 20.5t113.5 49.5t114 72t94.5 88.5t54.5 99.5t-5.5 104q-15 36 -47 52t-75.5 16t-95 -13.5 t-104.5 -35t-104.5 -49.5t-95 -57t-75.5 -57t-47 -50q-4 -5 -11.5 6t-10 31t5 45.5t34.5 48.5q40 35 93 67.5t112.5 58t122 39.5t121.5 11.5t110.5 -24.5t89.5 -70q41 -52 48 -102.5t-10.5 -97t-53 -87.5t-78.5 -73.5t-89 -55t-83 -32.5z" />
<glyph unicode="S" horiz-adv-x="716" d="M305 542q32 16 83.5 38t112 41t125 32.5t122 13.5t103.5 -18t69 -61q10 -19 4 -36.5t-22.5 -33t-39.5 -28t-47 -22t-45 -14.5t-32 -5q-25 -1 -43 5.5t-27 15t-7 16.5t17 10q12 2 33.5 7.5t46 13.5t48.5 18.5t41.5 21t24.5 21.5t-2 21q-21 21 -65 22.5t-102 -12t-125 -39 t-135 -58.5t-131.5 -70.5t-114.5 -75.5t-84 -74t-39 -64q-4 -19 10 -22t34 0.5t40.5 10.5t29.5 9q39 10 81.5 22.5t85.5 23t85.5 18t83.5 6.5q24 -1 52.5 -14.5t50 -35.5t29.5 -50.5t-9 -59.5q-19 -33 -58.5 -66t-91.5 -62t-111 -51.5t-116.5 -35t-108.5 -13t-87 15.5 q-26 12 -44.5 36.5t-24.5 52t4 53t40 40.5q10 4 22 0t20.5 -11.5t11 -16t-5.5 -13.5q-36 -23 -47 -40t-4 -28t28 -16.5t49 -5.5t59 4t59 13q85 26 167.5 66.5t157.5 109.5q37 34 35.5 49.5t-29 17.5t-74.5 -6t-100.5 -19.5t-107.5 -23.5t-94 -18q-19 -3 -41.5 -2.5t-44 4 t-41 11t-32.5 19.5q-39 35 -29 79t51.5 90t107 91t138.5 82z" />
<glyph unicode="T" horiz-adv-x="586" d="M930 634q44 -12 69 -32t29.5 -42t-12 -42.5t-54.5 -33.5q-24 -9 -44.5 -5t-34 12.5t-19 17.5t0.5 11q13 3 35.5 9.5t39.5 17.5q34 23 27.5 40t-48.5 24.5t-116.5 4.5t-174.5 -20q-63 -10 -129 -26.5t-130 -40.5t-123.5 -56.5t-109.5 -74.5q-48 -39 -62.5 -71.5 t-0.5 -49.5q5 -6 -1.5 -7t-17 3t-21.5 13.5t-15 24.5q-12 38 3 73t46.5 65.5t74 57.5t86.5 49q76 39 166 64t183 35t184 5t169 -26zM276 19q7 42 23 91t37.5 99.5t46.5 100t52 91t53.5 73t49.5 46.5q14 9 31 12.5t31.5 3t23.5 -3t6 -5.5q-23 -24 -53.5 -62.5t-62.5 -86 t-64 -101.5t-58 -110.5t-45 -112.5t-25 -107q-2 -12 -11 -12t-18 10.5t-15.5 29t-1.5 44.5z" />
<glyph unicode="U" horiz-adv-x="788" d="M118 84q49 -4 114 21.5t137 69t147 98.5t143 110t124.5 104.5t92.5 80.5q17 15 44.5 17.5t52 -1.5t40 -11.5t9.5 -13.5q-22 -19 -62 -50.5t-85 -71t-90 -84.5t-76.5 -91.5t-44 -91.5t6.5 -85q5 -9 -1 -14t-18 3q-23 15 -30.5 43t-4.5 59.5t12.5 62t20.5 50.5 q-44 -26 -98 -59t-111 -65.5t-114.5 -60t-108.5 -42t-92.5 -12.5t-66.5 30q-23 25 -28 58t3 69.5t26.5 74.5t41.5 73t48 65.5t47 52.5q16 16 42 21.5t49 3.5t36.5 -10t4.5 -18q-4 -5 -20.5 -23.5t-39 -45.5t-49 -60.5t-51 -68t-44.5 -67.5t-29 -59.5t-5 -43t27 -18.5z" />
<glyph unicode="V" horiz-adv-x="676" d="M86 29q24 -3 70.5 21t109 66t136.5 98t152 116.5t155 121.5t146.5 112.5t127 90t95.5 54.5q24 10 44.5 6.5t34 -12.5t19.5 -19t1 -13q-126 -68 -243 -154t-233 -176t-234.5 -176t-246.5 -153q-54 -29 -96 -24.5t-67.5 32.5t-31.5 74t12 100q9 28 28.5 67.5t43.5 80 t49.5 76.5t47.5 58q16 16 38 19.5t39 -1t25 -14t-4 -19.5q-9 -8 -26.5 -30t-40 -53t-47 -68.5t-47 -75.5t-41 -74t-28 -64.5t-7.5 -46.5t19 -20z" />
<glyph unicode="W" horiz-adv-x="946" d="M703 168q28 28 63 68t72 86.5t74 95.5t70.5 94t60.5 83.5t44 64.5q4 6 11 8t12.5 0t8 -7t-0.5 -11q-31 -59 -68 -126.5t-79.5 -136.5t-90 -135.5t-101.5 -124t-114.5 -102t-126.5 -68.5q-30 -11 -64 -12.5t-63 8.5t-49 32t-24 59q-28 -24 -66.5 -46t-79 -31t-79.5 0.5 t-67 48.5q-22 31 -26 72.5t7 89t33.5 97t54 97t68.5 89.5t76.5 73t79 49t75.5 17q4 0 12.5 -3t16 -7.5t11.5 -8.5t0 -6q-71 -32 -125 -87.5t-102 -115.5q-13 -16 -37.5 -51t-49 -77t-45 -86t-26 -78.5t9.5 -54.5t60 -14q61 8 112 38t96 70q20 69 60 135t85 124 q16 21 39 48.5t50.5 51.5t57 39t58.5 11q31 -4 29 -27.5t-25.5 -58.5t-62 -78t-80 -86.5t-80.5 -84t-62 -69.5q-6 -13 -12.5 -30t-11 -34.5t-5 -35t6.5 -31.5q8 -20 32.5 -16t57 21.5t68.5 44t67.5 52.5t54.5 46.5t29 26.5zM523 286q25 21 50 47.5t45.5 51t35 42.5t18.5 22 q-19 -13 -39.5 -32.5t-40.5 -42t-38 -45.5t-31 -43z" />
<glyph unicode="X" horiz-adv-x="552" d="M455 44q30 -31 72.5 -37t85 1.5t77.5 24.5t49 33q5 5 9 -1.5t3 -14.5q-2 -16 -15 -38.5t-35.5 -42.5t-55.5 -32.5t-75 -8.5q-39 4 -73 29t-60.5 61t-44.5 77.5t-24 77.5q-16 -15 -40 -38t-52 -50.5t-57.5 -57l-57 -57t-50 -51t-35.5 -38.5q-12 -13 -19 -11.5t-10.5 12 t-3.5 27t2.5 33t6.5 30t9 18.5q15 15 38 37.5t49.5 49t55.5 55t56 54.5t50 47.5t38 35.5q-2 43 -4.5 95t-3.5 104.5t-0.5 102t4.5 87.5q1 13 14 13.5t27.5 -8t25.5 -22.5t9 -30q2 -26 0.5 -65t-3.5 -80t-3.5 -79t-0.5 -63q65 56 125 104.5t130 99.5q10 7 28.5 19t41 24.5 t47 23t46.5 13.5t38.5 -4t24.5 -28q-131 -75 -243.5 -164t-224.5 -189q-2 -19 -3 -44t1.5 -50t9.5 -48t21 -37z" />
<glyph unicode="Y" horiz-adv-x="502" d="M295 228q53 60 104.5 115.5t105 107t112 100t125.5 93.5q18 12 37 10.5t33 -9.5t21 -18t1 -14q-35 -23 -73 -52.5t-74.5 -61t-70 -63.5t-60.5 -59q11 -7 15 -23.5t-7 -28.5q-32 -33 -74 -53.5t-81 -43.5q-84 -78 -153 -160.5t-128 -163.5q-3 -4 -14 -2t-22.5 8t-20.5 16 t-7 22q1 13 20.5 40.5t47.5 61.5t59 69.5t56 64.5q-30 -11 -61.5 -12.5t-58.5 8.5t-47 33t-28 61q-10 44 -6.5 93t16.5 96t33.5 88.5t46 70.5t53.5 42.5t55 5.5q2 -1 11 -7t18 -14t14 -15t1 -9q-27 -12 -56 -43.5t-54 -72.5t-43.5 -87.5t-26 -88.5t-1.5 -75.5t31 -49.5 q16 -10 35 -10t39.5 5t40 12.5t36.5 12.5z" />
<glyph unicode="Z" horiz-adv-x="666" d="M1050 671q5 3 6 -6t-4 -23.5t-16 -30.5t-29 -28q-16 -10 -57.5 -26.5t-89.5 -30.5q-36 -17 -87.5 -45.5t-112.5 -64.5t-128 -77.5t-135.5 -86t-134.5 -89.5t-124 -87q87 25 175.5 45.5t178.5 28.5q17 1 35 2.5t35 0.5t33.5 -6t30.5 -16q13 -10 14 -15t-5 -6.5t-17 -1.5 h-23q-72 0 -159 -19t-177 -49t-175.5 -67t-154.5 -73q-18 -9 -19.5 6.5t14 41t49 54.5t86.5 47q78 66 160 124t167.5 112t172.5 106t175 105q-83 -13 -158.5 -25t-149 -27.5t-148 -37t-156.5 -53.5q-5 -2 -6.5 7.5t2 23.5t13.5 29t30 23q69 27 142.5 44.5t150 30.5t154 25 t153 29t148.5 42t141 64z" />
<glyph unicode="[" horiz-adv-x="430" d="M410 528q-32 -57 -70.5 -118t-79 -121.5t-82.5 -119.5t-82 -113q41 0 62 4.5t38.5 10.5t39 10t62.5 3q30 -1 36.5 -10t-1.5 -20t-26 -19.5t-39 -8.5q-37 1 -70.5 1.5t-60.5 0.5t-45.5 0.5t-24.5 0.5q-4 0 -15.5 6.5t-23 15.5t-19 17.5t-3.5 11.5q27 21 53 54t51.5 72.5 t49.5 82t46.5 82.5t43 74.5t38.5 58.5q0 3 19 11.5t43 17.5t45 16t24 7q7 0 25.5 0.5t45.5 0.5h61t72 1q21 0 28 -9.5t0.5 -21t-26 -20.5t-50.5 -7q-18 1 -30.5 6t-28 10t-40 8.5t-66.5 3.5z" />
<glyph unicode="\" horiz-adv-x="278" d="M-62 426q-12 13 -10.5 23t9.5 15t18 4t14 -10q6 -13 29 -43.5t55 -70t69 -84t71 -84.5t61 -71t39 -45q8 -9 9 -16.5t-2 -11t-9.5 -2t-12.5 9.5z" />
<glyph unicode="]" horiz-adv-x="528" d="M208 56q32 57 70.5 118t79 121.5t82.5 119.5t82 113q-41 0 -62 -4.5t-38.5 -10t-39 -10t-62.5 -3.5q-30 1 -36.5 10.5t1.5 20t26 19t39 8.5q37 -1 70.5 -1h60.5t45.5 -0.5t24.5 -0.5q4 0 15.5 -7t23 -16t19 -17.5t3.5 -11.5q-40 -32 -79 -88.5t-75 -119.5t-68.5 -122 t-59.5 -94q0 -3 -19 -11.5t-43 -17.5t-45 -15.5t-24 -6.5q-7 0 -25.5 -0.5t-45.5 -0.5t-61 -0.5t-72 -1.5q-21 0 -28 9.5t-0.5 21t26 20.5t50.5 7q18 -2 30.5 -6.5t28 -9.5t40 -8.5t66.5 -3.5z" />
<glyph unicode="^" horiz-adv-x="390" d="M113 337q1 7 17.5 21t37 28.5t40 25t27.5 10.5q12 0 23 -10t20 -24t13.5 -28.5t3.5 -24.5q0 -5 -5.5 -9t-12.5 -6t-14.5 -1.5t-11.5 3.5q-5 3 -3.5 9.5t4.5 14.5t5.5 17t1.5 17q-9 -8 -21.5 -18.5t-24.5 -20.5t-23 -18t-18 -10t-17.5 -1t-20.5 4.5t-16.5 8.5t-4.5 12z " />
<glyph unicode="_" horiz-adv-x="258" d="M19 102h39.5t56 0.5t55 1t35.5 2.5q8 1 9.5 -3t-1.5 -9t-11 -10t-18 -7q-16 -3 -45 -4t-60 -1h-56.5h-34.5q-8 0 -8 4.5t5 10.5t14 10.5t20 4.5z" />
<glyph unicode="`" horiz-adv-x="226" d="M148 358q-7 2 -22 6t-31.5 8.5t-31.5 10.5t-22 13q-6 7 -5.5 20t5.5 25t13 20.5t17 6.5t22 -11.5t27 -22t27 -25.5l21 -21q8 -9 8.5 -16t-3.5 -11t-11 -5t-14 2z" />
<glyph unicode="a" horiz-adv-x="287" d="M293 247q14 13 22.5 6.5t-5.5 -23.5q-8 -9 -22 -26.5t-29 -35.5t-30 -32t-25 -16q-13 -3 -36.5 4t-40.5 21q-13 -9 -25 -17.5t-24 -12.5q-11 -2 -27 1t-31.5 11.5t-27.5 20.5t-16 28q-4 17 8.5 40.5t30.5 44.5t37.5 36.5t30.5 16.5q7 1 17.5 -1t21 -7t19 -12t11.5 -16 q14 12 24 11q8 -2 17 -5t16.5 -7t12.5 -10t4 -13q0 -8 -8 -21.5t-17 -27.5t-15 -25t-2 -14q3 -2 13.5 4.5t25.5 18t33.5 26.5t36.5 32zM42 151q11 -6 27.5 6.5t31.5 31.5t25.5 39t10.5 30q-4 9 -14 5t-22 -15t-24.5 -27t-21.5 -30.5t-13.5 -26t0.5 -13.5z" />
<glyph unicode="b" horiz-adv-x="272" d="M48 166q5 -5 15.5 2t22.5 18t23 24t18 22q-2 11 2 22t12 20t19.5 15t23.5 7q11 0 24.5 -5t15.5 -16q3 -9 -1 -21t-12 -24q16 -5 31 -1.5t32 17.5q6 4 12 6.5t9.5 1.5t3.5 -4.5t-6 -9.5q-12 -12 -24.5 -22.5t-25 -17.5t-26.5 -10t-29 1q-20 -23 -44 -44.5t-43 -25.5 q-18 -3 -38 4.5t-36.5 21t-27 31t-10.5 34.5q0 13 17 49t45 84t65 102t76 101.5t78.5 83t72.5 46.5q11 4 28.5 3t34.5 -6.5t29.5 -16t12.5 -24.5q0 -16 -17 -43.5t-46 -61.5t-66.5 -72.5t-78.5 -77t-83 -73.5t-79 -62q-12 -18 -20 -34q-7 -14 -11 -26.5t1 -17.5zM397 629 q-4 5 -18 -6t-35 -33t-46.5 -51.5t-51.5 -60.5q-61 -74 -136 -171q13 10 41 35t62 58.5t69 70t62.5 69t43 57t9.5 32.5z" />
<glyph unicode="c" horiz-adv-x="246" d="M181 248q0 -20 -15.5 -35.5t-32.5 -26.5q-8 -5 -17.5 -5t-18 3t-13 8.5t-1.5 12.5q3 6 12.5 14.5t18.5 17.5t14 16.5t0 12.5q-6 6 -21.5 -9.5t-30 -37.5t-22.5 -44t2 -29q10 -8 34 -1t51.5 22t54.5 34t43 35q9 10 16.5 13.5t11.5 1t2.5 -9.5t-10.5 -19q-11 -13 -29 -31.5 t-38.5 -36t-41.5 -31t-37 -17.5q-14 -4 -35.5 -1.5t-43.5 10.5t-38.5 22t-19.5 33q-4 15 3.5 36t21 41t30 36.5t28.5 23.5t32.5 2.5t40.5 -14t34.5 -23t14.5 -24.5z" />
<glyph unicode="d" horiz-adv-x="275" d="M78 304q13 2 29.5 -0.5t29.5 -10.5q25 54 61 119t74.5 122.5t74.5 97.5t60 45q20 3 37 -2t29.5 -14t19.5 -19.5t9 -17.5q2 -15 -12.5 -39.5t-54 -70.5t-107.5 -119t-171 -186q-8 -17 -3 -22q3 -5 20 1t38.5 17.5t42 24t29.5 21.5q10 9 15 9t6.5 -4.5t-1.5 -12t-10 -14.5 q-51 -52 -79.5 -76t-41.5 -27q-17 -3 -31 11t-24 33q-18 -20 -35.5 -34.5t-26.5 -16.5q-11 -2 -24.5 0.5t-26 9.5t-22.5 18.5t-13 26.5q-4 18 8.5 40t31 41.5t38 33t30.5 15.5zM455 622q-5 3 -18.5 -9.5t-33 -35t-43.5 -54t-49 -66.5t-49.5 -71.5t-45.5 -69.5q27 30 56.5 63 t57.5 65.5t53 63t42.5 54.5t26 40t3.5 20zM43 151q5 -5 21 6t42 46q0 13 4 26t12 31q-12 -3 -28 -18.5t-29 -34t-20 -35.5t-2 -21z" />
<glyph unicode="e" horiz-adv-x="241" d="M245 244q19 14 21 9t-7 -19q-9 -15 -25.5 -35t-36.5 -38t-42 -32t-41 -17q-13 -2 -34 6.5t-40.5 24.5t-32.5 37t-9 43q3 18 15 34.5t27 29t30.5 20t26.5 7.5q9 0 20.5 -5t21 -13t15 -18.5t4.5 -21.5q-2 -11 -15 -25.5t-29 -28.5q-18 -16 -42 -33q22 -6 70.5 14t102.5 61z M127 263q-4 3 -18.5 -4.5t-28.5 -19.5t-23.5 -26.5t-4.5 -24.5q6 3 19.5 14t27 24t22.5 23.5t6 13.5z" />
<glyph unicode="f" horiz-adv-x="179" d="M439 624q1 -13 -12.5 -34t-47.5 -58t-92.5 -95t-146.5 -145q-51 -52 -86 -106q7 -1 25.5 6t39 17.5t40 22t28.5 19.5q10 9 15.5 9t6 -4.5t-2.5 -12t-10 -14.5q-57 -52 -88.5 -76t-43.5 -27q-11 -2 -20 3.5t-16 13.5q-34 -57 -51 -98.5t-24 -48.5q-5 -4 -16 0.5 t-22.5 13.5t-21 20.5t-11.5 21.5q0 4 16 32.5t44 72t64.5 98.5t76.5 111.5t80.5 111t76.5 98t64.5 71t44.5 30.5q20 4 36.5 -1t28 -14t18 -20t7.5 -18zM391 622q-4 3 -19 -9.5t-37 -36t-49 -55t-55.5 -67t-56.5 -72.5t-52 -70q45 44 95 96t91 97.5t65.5 78t17.5 38.5z" />
<glyph unicode="g" horiz-adv-x="271" d="M280 252q7 6 13.5 6.5t10 -2.5t3 -9t-7.5 -14q-4 -5 -22 -20.5t-46 -41t-63 -59.5t-73 -74q-45 -48 -74 -94.5t-48 -84.5t-30.5 -63.5t-20.5 -29.5t-23.5 -4.5t-26.5 3t-17.5 11t3.5 21.5q7 9 26.5 41t47 77t60.5 100t69 111q-12 -2 -25 0.5t-24.5 9t-20 17.5t-11.5 26 q-5 19 6 42t28.5 43t36.5 35t31 17q9 1 20 -2.5t22 -9.5t19.5 -14.5t13.5 -18.5q15 22 23 24q6 2 15.5 -1t18 -8.5t14.5 -13t6 -14.5q-1 -8 -14 -24.5t-34 -40.5t-46.5 -55.5t-51.5 -70.5q3 3 22.5 24t48 49.5t61 58.5t60.5 53zM136 244q2 4 0 9q-4 10 -13 7.5t-20 -12.5 t-22 -24.5t-19.5 -29t-12.5 -26.5t0 -16q5 -5 18 4.5t27 22.5z" />
<glyph unicode="h" horiz-adv-x="320" d="M443 619q5 -15 -11.5 -41.5t-46.5 -59.5t-70 -70.5t-84 -75t-88.5 -72.5t-81.5 -62q-9 -16 -14 -27q-5 -10 -6.5 -16t3.5 -1q6 5 24 21.5t39 35t41.5 35t32.5 21.5q11 5 21 1t18 -12.5t13 -18t7 -15.5q2 -7 -10.5 -23t-27 -33.5t-25 -31.5t-4.5 -17q4 -1 16.5 4.5t29 15 t35.5 22t36 24t30 21t18 14.5q17 13 27.5 6.5t0.5 -19.5q-5 -6 -20.5 -23t-37 -36.5t-46 -36t-46.5 -22.5q-29 -7 -49.5 -0.5t-32.5 19.5t-16.5 29.5t0.5 30.5q-15 -14 -29 -25q-12 -11 -24 -21t-19 -16q-7 -7 -19.5 -11.5t-26 -5t-24 4t-12.5 16.5t15 53t47.5 96 t70.5 117.5t82.5 117.5t84 95t74.5 51q10 4 25.5 3.5t30.5 -7t28.5 -20t20.5 -35.5zM404 642q-4 5 -18.5 -7t-36 -34.5t-48 -53t-53.5 -63.5q-63 -77 -142 -177q12 10 41 36.5t64 61t72 73t65.5 72.5t45 59t10.5 33z" />
<glyph unicode="i" horiz-adv-x="167" d="M130 343q-6 0 -15 3t-16.5 8t-12 11.5t-3.5 13.5q1 6 5.5 16t10.5 19.5t13.5 16.5t14.5 9q7 1 17 -2.5t19 -10t14.5 -14t4.5 -12.5q0 -6 -6 -15.5t-14 -18.5t-17 -16t-15 -8zM168 245q20 18 30 11t-8 -29q-12 -15 -29 -31.5t-34.5 -31t-32.5 -25t-23 -12.5 q-11 -1 -25.5 4t-28 15t-22 24.5t-6.5 32.5q2 17 9.5 37.5t17.5 37.5t20 28t18 10q7 -2 15 -5.5t14.5 -8t10.5 -10.5t3 -14t-9 -23.5t-16 -31.5t-14 -29t-2 -16q3 -2 14.5 2.5t27 13.5t34 22t36.5 29z" />
<glyph unicode="j" horiz-adv-x="136" d="M145 252q14 12 23 4.5t-4 -23.5q-3 -5 -21.5 -20.5t-46 -41t-63 -59.5t-73.5 -74q-45 -48 -74.5 -94.5t-48 -84.5t-30 -63.5t-21.5 -29.5q-8 -4 -21 -5.5t-24.5 1.5t-17 11.5t0.5 23.5t30.5 57.5t57.5 97t70.5 114.5t70.5 110t58 83.5t32 35.5q6 2 15 0t17.5 -6t14 -9.5 t5.5 -11.5q0 -7 -12.5 -24.5t-33 -44t-45.5 -60t-51 -72.5q3 3 23 24t48.5 49.5t60.5 58.5t60 53zM127 318q-5 0 -13 2.5t-15.5 7t-13 10t-5.5 11.5t3 15t7.5 17t11 14.5t12.5 7.5t16 -2t19 -8.5t15.5 -12.5t7.5 -12q0 -5 -4.5 -13t-11.5 -16t-15 -14t-14 -7z" />
<glyph unicode="k" horiz-adv-x="275" d="M239 268q-1 -5 -10.5 -9.5t-24.5 -9t-33.5 -9.5t-38.5 -12q-5 -11 -8.5 -22t1.5 -19q2 -5 24.5 2.5t50 19.5t53 24t33.5 18q18 13 29 12.5t-3 -21.5q-9 -10 -28.5 -25.5t-43 -31.5t-46.5 -30t-38 -21t-30 -3.5t-27.5 12t-21.5 17.5t-11 14q-3 4 -2.5 9t1.5 10 q-17 -11 -29.5 -27.5t-18.5 -37.5q-7 -6 -16 -5t-17.5 6t-14 12.5t-5.5 14.5q0 9 11 35t29.5 61.5t43.5 79t54 88t60 87.5t62 78t60 60t54 33q11 4 26 3.5t30.5 -7t28.5 -20t20 -35.5q4 -15 -12 -41.5t-46 -59.5t-70 -70.5t-84 -75t-88 -72.5t-81 -62l-18 -39q35 28 66 52 q26 20 51.5 37.5t36.5 21.5q7 1 14.5 -3t14 -10.5t10 -14.5t2.5 -14zM406 642q-4 5 -19 -7t-37 -34.5t-48.5 -53t-53.5 -63.5q-63 -77 -142 -177q13 10 41.5 36.5t63.5 61t72 73t66 72.5t45.5 59t11.5 33z" />
<glyph unicode="l" horiz-adv-x="199" d="M204 247q23 14 28 8t-11 -22q-17 -16 -36 -32.5t-37.5 -31t-36.5 -24.5t-33 -13q-13 -2 -30 -0.5t-32 8.5t-25 19.5t-10 32.5q0 12 18.5 50t49 88t69 106.5t80 106.5t81.5 87t73 48q10 4 28 3t35 -6.5t29.5 -16t12.5 -24.5q0 -16 -18 -44t-48 -62.5t-69 -74t-82 -78.5 t-86 -74.5t-80 -62.5q-11 -15 -18 -28q-6 -11 -9.5 -21.5t1.5 -14.5q3 -3 24 6t46.5 22t50 26.5t35.5 18.5zM406 629q-4 5 -18.5 -6t-35.5 -33t-46 -51.5t-51 -60.5q-61 -74 -136 -171q13 10 41 35t61.5 58.5t69 70t63 69t43 57t9.5 32.5z" />
<glyph unicode="m" horiz-adv-x="419" d="M37 290q7 4 18.5 4t22.5 -3t19 -8.5t7 -12.5q0 -9 -11.5 -23t-24.5 -27.5t-23 -23.5t-7 -10t13 8t23.5 20t29 26.5t29.5 27.5t25 22t15 11q9 3 19 0.5t19 -7t15 -11t7 -12.5q1 -13 -16 -35.5t-41 -54.5q29 30 55 55q22 21 41.5 40.5t27.5 24.5q7 5 18.5 3t22 -8.5 t17.5 -16.5t6 -20q-1 -5 -9 -16t-19.5 -23.5t-23.5 -26t-21 -24.5t-12.5 -17.5t2.5 -5.5q4 1 23 14.5t41.5 30t43.5 31t29 19.5q17 9 24.5 7t-6.5 -19q-8 -9 -23.5 -27t-34.5 -37.5t-38 -35.5t-34 -20q-15 -5 -31.5 -2t-30 10t-23 17t-10.5 20q0 5 3.5 13.5t9 17.5 t10.5 16.5t7 9.5q-10 -10 -24 -24.5t-28.5 -28t-28 -23.5t-21.5 -11q-13 -3 -27 6.5t-14 20.5q0 4 5 15t11.5 23t12.5 23t7 16q-32 -29 -58 -51q-23 -20 -43.5 -35.5t-26.5 -17.5q-5 -2 -13.5 0t-16.5 6.5t-14.5 11t-7.5 13.5q-2 7 8.5 28t25 43.5t29 41.5t20.5 22z" />
<glyph unicode="n" horiz-adv-x="317" d="M28 289q6 6 14.5 4.5t16 -7t13.5 -14t7 -15.5q2 -7 -0.5 -17.5t-7 -21t-8.5 -19t-5 -12.5q5 3 23 20.5t38 37.5t37.5 36t22.5 18q4 2 14 0.5t20 -6t18 -11t10 -14.5t-7.5 -26t-20.5 -37.5t-19.5 -35t-3.5 -18.5t22 8t37.5 27t38.5 32.5t26 23.5t13.5 7.5t8.5 -3.5 t2.5 -10t-4.5 -13q-5 -7 -21 -24.5t-35.5 -37t-37.5 -35.5t-28 -19q-15 -6 -33.5 -3.5t-35.5 9t-28.5 17t-12.5 21.5q-1 4 3.5 16t10.5 24t11.5 22t5.5 11l-14.5 -15.5t-33 -33.5t-37 -33t-26.5 -15q-13 0 -27 8.5t-17 25.5q-1 7 2.5 24.5t10 37t16 38t21.5 28.5z" />
<glyph unicode="o" d="M94 316q14 0 25.5 -7t13.5 -19q26 -6 37 -25t9 -43q25 -3 48.5 8t36.5 27q8 9 14.5 12t10.5 1t4 -7.5t-4 -12.5q-16 -27 -46.5 -49t-80.5 -28q-13 -20 -32.5 -36t-46.5 -24q-12 -4 -29.5 0t-34 15t-27.5 28t-8 38q2 20 11.5 41.5t24 39.5t33.5 29.5t41 11.5zM54 151 q5 -8 21 0t31 25q-11 8 -19 21.5t-11 31.5q-17 -23 -24 -45.5t2 -32.5z" />
<glyph unicode="p" horiz-adv-x="312" d="M-204 -221q-5 -8 -17.5 -10.5t-24 0t-18.5 11t0 23.5q5 11 22 41.5t41.5 72.5t54.5 92t61 100.5t61 98t54.5 85t42 61t22.5 25.5q10 6 22 1.5t21.5 -12.5t15.5 -17.5t3 -15.5q-2 -6 -7.5 -13.5t-15.5 -21.5t-26 -36l-40 -55q15 14 31 28.5t28.5 26.5t21.5 20t11 9 q4 2 15.5 0.5t24 -6t23 -11t12.5 -13.5q2 -5 -4 -14.5t-15 -20t-20 -22.5t-20 -21.5t-13.5 -17t-1.5 -9.5q5 -3 28.5 9.5t52 30t53.5 34.5t33 24q15 15 22 7.5t-2 -21.5q-5 -7 -26.5 -27t-47.5 -42.5t-51 -41t-36 -21.5q-15 -3 -32 0t-32 10t-26 18t-12 24q-1 6 4 16t11 20 q7 11 16 24q-20 -16 -39 -33q-17 -14 -35 -32t-32 -35q-41 -61 -98 -151t-116 -192z" />
<glyph unicode="q" horiz-adv-x="278" d="M288 252q7 6 13 6.5t9.5 -2.5t3 -9t-7.5 -14q-4 -5 -22.5 -20.5t-46 -41t-63 -59.5t-73.5 -74l-27 -28q37 1 69.5 2.5t57 2t39.5 0.5t17 -2q3 -5 -1.5 -11t-12 -11t-17 -9t-16.5 -4q-3 0 -17 0.5t-35 2t-47.5 3.5t-54.5 3q-31 -41 -51.5 -79t-35 -68t-24 -50t-17.5 -24 q-9 -4 -23 -4.5t-26 3t-17.5 11t4.5 21.5q5 6 16 24t26.5 43.5t34.5 57t39 65.5q-28 0 -53.5 -0.5t-45.5 -0.5t-32 0.5t-13 2.5q-5 5 2.5 14t37.5 7q28 -2 57 -2.5t59 -0.5q17 29 29.5 55.5t31.5 55.5q-23 -2 -49.5 13t-34.5 44q-3 18 10 41t32.5 43.5t40 35t31.5 16.5 q10 1 22.5 0t24.5 -5.5t20.5 -12t11.5 -19.5q2 0 2 0.5t1 0.5q7 2 16 -0.5t17.5 -7.5t14 -12.5t5.5 -15.5q-2 -16 -37.5 -55.5t-87.5 -116.5q3 3 23 24t48.5 49.5t61 58.5t60.5 53zM48 152q4 -3 18 5t37 36q14 20 25 36t20 28l-3 5q-6 7 -17 3t-23 -15t-24 -26t-20.5 -29.5 t-12.5 -26.5t0 -16z" />
<glyph unicode="r" horiz-adv-x="221" d="M46 262q4 -4 12 -3.5t16.5 3.5t16 7t10.5 7q2 4 10.5 4t17.5 -3.5t16.5 -10t9.5 -15.5q1 -8 -7.5 -23t-18 -29.5t-14.5 -25.5t3 -11t23.5 11.5t32.5 26.5t32 30l22 22q15 13 25.5 10t-2.5 -21q-6 -9 -18.5 -26t-28.5 -36t-34 -36t-36 -24q-8 -3 -22.5 0t-29.5 10 t-26 18.5t-10 26.5q0 13 6.5 27.5t14.5 31.5q-18 -5 -37 -1t-31 14t-14 24.5t13 31.5q16 19 31.5 21t24.5 -6.5t8.5 -24t-16.5 -30.5z" />
<glyph unicode="s" horiz-adv-x="200" d="M53 247q21 3 39.5 0.5t33 -8.5t23 -16t8.5 -23t-8.5 -31t-22 -35t-31 -31t-33.5 -18q-17 -4 -33 1t-28.5 15t-20.5 22.5t-8 22.5q0 7 5.5 16t14.5 17.5t20 16t22 12.5q17 8 20 0.5t-7 -18.5q-3 -3 -9.5 -10.5l-13 -15t-11 -14.5t-1.5 -10q5 -4 17.5 4.5t25 22t22 27 t8.5 20.5q-2 7 -14 6.5t-27 -1t-30.5 2t-23.5 14.5q-9 13 -7.5 29.5t9.5 31.5t20.5 25.5t24.5 12.5q8 1 17 -3t16.5 -10.5t12.5 -14.5t5 -15q0 -14 -13 -23t-22 -22z" />
<glyph unicode="t" horiz-adv-x="186" d="M19 358q5 5 63 7q16 14 30 23t27 9q12 0 26 -9.5t22 -21.5q51 0 109 1t118 3q76 2 149 6t132 8t98 7t48 3q17 0 37.5 -5.5t37.5 -13t26.5 -16t3.5 -15.5q-4 -4 -39 -4.5t-92.5 0t-133 1.5t-160 1.5t-172.5 0t-171 -4.5q-11 -8 -28 -24t-35 -35t-35.5 -40t-29.5 -39 t-16.5 -31.5t2.5 -18.5q6 -4 28 9t47.5 31t49 35.5t32.5 22.5q18 12 26 5t-1 -19q-5 -6 -24 -25.5t-44.5 -40t-53 -36.5t-47.5 -16q-41 0 -53.5 22.5t-7.5 56t24 72t43 69.5q-47 10 -36 22z" />
<glyph unicode="u" horiz-adv-x="325" d="M49 311q7 5 19 2.5t23 -9t20 -15t10 -15.5q2 -5 -4 -15.5t-15.5 -22.5t-20 -25t-18 -22.5t-9.5 -14.5t6 -2q7 3 19.5 12.5t27.5 22.5t31 27.5t30 27.5t24 22t14 11q5 1 13 -1t16.5 -7t15 -12.5t9.5 -15.5t-7.5 -22.5t-23 -29.5t-21.5 -27t-4 -16q4 -3 21.5 7.5t39.5 26 t42.5 31.5t29.5 24q18 16 25 7.5t-3 -24.5q-6 -7 -23.5 -25.5t-38.5 -38.5t-42 -36t-33 -18q-13 -3 -27.5 0.5t-27.5 11.5t-22.5 19t-11.5 23q-2 8 0 14.5t4 9.5q-13 -11 -28.5 -24.5t-30.5 -25.5t-28 -20t-22 -8q-6 0 -17 3.5t-21.5 9.5t-19 13.5t-10.5 16.5q-1 9 8.5 29 t23 43t29.5 44.5t28 33.5z" />
<glyph unicode="v" horiz-adv-x="296" d="M55 319q6 6 16 3.5t20 -10t17.5 -17.5t9.5 -18q1 -7 -12 -24t-26.5 -36t-19 -34.5t10.5 -19.5q7 -2 24.5 11t38.5 32q-10 13 -7.5 28.5t11.5 28t22.5 21.5t26.5 9h1q15 0 21.5 -6t7 -15.5t-4 -21.5t-13.5 -24q17 -9 42.5 -8.5t48.5 20.5q6 5 12.5 7t10.5 1.5t4.5 -4 t-6.5 -10.5q-16 -16 -33.5 -28.5t-36.5 -19.5t-39 -7.5t-40 8.5q-27 -26 -56 -45.5t-53 -19.5q-7 0 -16.5 5t-18.5 12.5t-16 16t-9 16.5q-6 23 -2 45t14 41.5t23.5 35.5t26.5 27z" />
<glyph unicode="w" horiz-adv-x="409" d="M178 299q6 6 15.5 3.5t18.5 -10t16.5 -18t9.5 -18.5q1 -8 -7 -22t-16.5 -28.5t-13.5 -26.5t2 -15q7 -2 23.5 11.5t36.5 33.5q-9 13 -6.5 28.5t11 28t20.5 21.5t24 9h1q13 0 19.5 -6t7 -16t-4 -22t-11.5 -24q14 -9 38 -9t46 21q5 5 11 7t9.5 1.5t4 -4.5t-5.5 -11 q-14 -16 -30.5 -28.5t-34.5 -19.5t-36.5 -7.5t-36.5 8.5q-26 -26 -53 -46t-50 -20q-6 0 -14.5 5t-17 12.5t-15 17t-8.5 17.5q-3 8 -3.5 16t-0.5 16q-12 -11 -25.5 -25t-27 -26t-25 -20.5t-20.5 -8.5q-5 0 -14 3.5t-18.5 9.5t-17.5 13.5t-9 16.5t7 29t20 43t26.5 44.5 t26.5 33.5q6 5 16 2.5t20 -9t18 -15.5t10 -17q1 -5 -4.5 -15t-14.5 -22t-18 -24.5t-16 -22t-8.5 -14.5t5.5 -2q6 3 15.5 10.5t21 18t24 23t23.5 24.5q7 14 16 24.5t20 20.5z" />
<glyph unicode="x" horiz-adv-x="266" d="M169 313q8 2 15 -2.5t12 -11.5t7.5 -15.5t0.5 -15.5q-1 -4 -13 -14t-31 -23.5t-43 -29.5t-49 -32v-1h2q3 -4 17.5 -1.5t35 8.5t43 15t43 17.5t35.5 16t20 10.5q6 5 13 6t11.5 -1t4.5 -8t-7 -15q-8 -10 -31 -28t-51 -36t-56 -31.5t-44 -13.5q-14 0 -33.5 11.5t-36.5 29.5 l-90 -57q-11 -6 -18 -3.5t-10 9t-2 14t6 9.5q27 12 50 25t43 27q-8 12 -13 25t-4 25q1 9 3.5 24.5t8 30t14 25.5t22.5 12q15 2 31.5 -6t21.5 -27q3 -10 -6 -27.5t-17 -35.5q43 38 64.5 65.5t30.5 29.5z" />
<glyph unicode="y" horiz-adv-x="282" d="M292 252q14 12 23 4.5t-5 -23.5q-4 -5 -22 -20.5t-45.5 -41t-63 -59.5t-73.5 -74q-45 -48 -74 -94.5t-48 -84.5t-30.5 -63.5t-20.5 -29.5t-23 -4.5t-26 3t-17 11t5 21.5q7 11 30.5 51t55.5 94t69.5 115.5t72.5 115.5q-20 -19 -39 -34t-31 -15q-6 0 -16 3.5t-20 9 t-18.5 13t-10.5 16.5q-1 8 7.5 27.5t22 42t29 44t28.5 32.5q6 5 16.5 3t21 -8.5t19 -15.5t9.5 -16q3 -7 -10 -25t-27.5 -35.5t-23.5 -30t2 -8.5q8 3 20.5 13t27 23.5t29.5 28.5t28 27q8 7 12.5 12.5t7.5 6.5q7 1 16 -2t17 -8t13 -12.5t5 -14.5q0 -8 -12 -23t-30.5 -37.5 t-43 -53t-49.5 -69.5q3 3 22.5 24t48 49.5t61 58.5t60.5 53z" />
<glyph unicode="z" horiz-adv-x="253" d="M8 287q8 10 36 13t59.5 2t58 -5.5t31.5 -9.5q11 -10 7.5 -23.5t-20.5 -22.5q-10 -5 -28 -14.5t-36 -20.5q-21 -12 -45 -26q4 -5 8 -9t8.5 -7t9.5 -4q8 -2 30 6.5t46.5 20t47.5 23.5t32 18q21 11 28 3.5t-7 -19.5q-8 -6 -30.5 -24t-49 -37.5t-51 -34.5t-34.5 -15t-19 7 t-17.5 16.5t-16.5 18.5t-15 14q-8 -6 -17 -15.5t-18 -18t-18.5 -15t-18.5 -7.5q-9 -2 -16 4t-12 15t-7 19t0 16q4 9 19.5 20.5t34 20.5t35.5 12.5t24 -3.5l66 36q-22 -6 -40 -11q-16 -5 -31.5 -10t-23.5 -9q-9 -4 -13.5 5t-5 22.5t1.5 28t7 20.5z" />
<glyph unicode="{" horiz-adv-x="251" d="M352 479q-22 -14 -48.5 -40.5t-56 -52.5t-61.5 -45t-65 -17q17 -12 22 -30.5t1.5 -40t-12 -45.5t-17 -47.5t-15 -45t-5.5 -38.5q2 -36 -2.5 -36.5t-25.5 18.5q-25 22 -31 47t-2 51t13 51t14 47.5t1.5 41.5t-24.5 31q-9 5 -9 9.5t6.5 8t17 6t21.5 4.5q28 4 61 26.5 t67.5 49t68.5 48t66 24.5q44 4 44 -1t-29 -24z" />
<glyph unicode="|" horiz-adv-x="390" d="M77 -2q4 14 18.5 60.5t34 110t41.5 135.5t41.5 137t34 114.5t19.5 67.5q5 17 15 20.5t18 -1t12.5 -13.5t-0.5 -17q-6 -9 -17.5 -37t-26 -69t-31.5 -91t-34 -102t-33 -103.5t-30 -94.5t-24 -75t-14 -45q-4 -11 -9.5 -15.5t-10 -4t-6 6.5t1.5 16z" />
<glyph unicode="}" horiz-adv-x="319" d="M-40 89q22 14 48.5 40.5t56 52.5t61.5 44.5t65 17.5q-18 12 -22.5 30.5t-1 40t12 45.5t17 47.5t15 45t5.5 38.5q-2 36 2.5 36.5t25.5 -18.5q25 -22 31 -47.5t2 -51t-13 -51t-14 -48t-1.5 -41t24.5 -30.5q9 -5 9 -9.5t-6.5 -8.5t-17 -6.5t-21.5 -4.5q-28 -4 -61 -26.5 t-67.5 -48.5t-69 -47.5t-65.5 -24.5q-44 -4 -44 1t29 24z" />
<glyph unicode="~" horiz-adv-x="317" d="M46 204q11 17 30.5 33t33.5 22q7 3 16 3.5t18 -2t16 -6t10 -7.5q8 -9 8.5 -19.5t1.5 -10.5t14 4.5t26 28.5q3 5 8 7t9.5 1.5t7.5 -5t2 -11.5q-3 -14 -11 -27.5t-18 -24.5t-20.5 -19t-17.5 -10q-8 -2 -18 -3t-20.5 -0.5t-19.5 3.5t-14 9q-4 4 -7 10t-5 11q-3 6 -4 12 q-7 -5 -12.5 -11t-12.5 -11q-14 -11 -23 -2.5t2 25.5z" />
<glyph unicode="&#xa1;" horiz-adv-x="169" d="M276 551q6 0 14.5 -3t16 -8t12.5 -11.5t4 -13.5q-1 -6 -5.5 -16t-11 -19.5t-14 -17t-14.5 -8.5q-7 -2 -17 2t-18.5 10.5t-14.5 14t-5 12.5q0 6 6 15t14 18t17.5 16t15.5 9zM190 394q5 3 12 2.5t14 -3.5t11 -8.5t3 -12.5q-1 -4 -11.5 -25t-27 -50.5t-36.5 -62.5t-37.5 -61 t-31.5 -47t-18 -20q-10 -2 -22.5 2.5t-23 13.5t-17.5 19.5t-6 20.5q0 4 13 22t33 43t43.5 53t44.5 52.5t37 41.5t20 20z" />
<glyph unicode="&#xa2;" horiz-adv-x="246" d="M12 20q4 13 12 37.5t18 55.5q-23 7 -42.5 22t-23.5 35q-4 15 3.5 36t21 41t30 36.5t28.5 23.5q8 5 21 4.5t27 -5.5q10 29 17 52.5t12 38.5q5 17 14.5 20.5t17.5 -0.5t12.5 -13.5t-0.5 -17.5q-8 -11 -19 -35.5t-25 -56.5q19 -10 32 -22.5t13 -23.5q0 -20 -15.5 -35.5 t-32.5 -26.5q-9 -5 -20 -5t-19 4l-16 -43q16 2 38.5 12t45 23.5t43.5 29t34 29.5q9 10 16.5 13.5t11.5 1t2.5 -9.5t-10.5 -19q-11 -13 -29 -31.5t-38.5 -36t-41.5 -31t-37 -17.5q-19 -6 -47 0l-30 -88q-4 -11 -9 -15.5t-9.5 -4t-6.5 6.5t1 15zM80 226q-15 -23 -24.5 -46 t-1.5 -32zM128 266q-1 0 -1 1l-1 1q-4 -8 -6.5 -16t-5.5 -16q9 9 14 17t0 13z" />
<glyph unicode="&#xa3;" horiz-adv-x="721" d="M277 320l19 21q-14 0 -27 0.5t-16 0.5q-8 0 -8 4.5t5.5 10.5t14 10.5t19.5 4.5h39q54 60 119 116t134 104t139.5 84.5t135 58t120 25t95.5 -15.5t48 -46.5t-6.5 -59t-47 -66t-73.5 -68t-86.5 -64t-85.5 -55t-70.5 -40.5t-42.5 -20q-9 -3 -20.5 4t-19 17t-8.5 20.5 t10 15.5q-2 -1 19 10.5t55.5 30.5t77.5 45t85.5 54t80.5 57.5t61.5 56t29 48.5t-17.5 36q-26 15 -67 10.5t-92 -25t-109 -54.5t-118.5 -77.5t-119.5 -95t-112 -106.5h47.5t43 0.5t33 1.5t19.5 2q7 1 9 -3t-1.5 -9t-11 -10t-18.5 -7q-8 -2 -23 -2.5t-35 -1.5t-44 -1.5 t-48 -0.5l-19 -21q27 0 53.5 0.5t49 1t38.5 1t22 1.5q7 1 9 -3t-1.5 -9t-11 -10t-18.5 -7q-8 -1 -25 -2t-40 -2t-49.5 -1.5t-53.5 -0.5q-38 -45 -74 -86t-71 -73q83 16 169.5 15t165.5 -19t144 -51.5t104 -81.5q17 -21 16 -32t-16 5q-47 55 -123 90.5t-167 46.5t-190 -5.5 t-192 -65.5q-12 -7 -24.5 -14t-25 -10.5t-24.5 -1.5t-24 13q-11 9 -12.5 15.5t2 12.5t11.5 12t17 12q50 45 99.5 102t103.5 117h-25q-8 0 -8 4.5t5 10.5t14 10.5t20 4.5h20z" />
<glyph unicode="&#xa4;" horiz-adv-x="281" d="M118 286q5 0 16.5 -5.5t23.5 -12.5q6 8 14.5 17.5t16.5 18t15 14t11 5.5q5 -1 11 -6t10.5 -11t7 -12t0.5 -10q-1 -3 -7 -7.5t-14 -10t-17.5 -11.5t-18.5 -11q4 -5 7 -9t3 -8q1 -21 -13 -39q18 -8 35 -18t19 -15q0 -5 -3 -12t-8 -13.5t-10 -10.5t-9 -3q-6 0 -23 14.5 t-31 30.5q-15 -10 -26.5 -16t-12.5 -5q-7 4 -18.5 10t-22.5 14q-6 -8 -14 -17.5t-16 -17.5t-14.5 -13.5t-10.5 -5.5q-5 1 -11 6t-10.5 11t-7 12t-0.5 10q1 3 7 8t14.5 11t18.5 12t19 11q-3 4 -3 12t5 19t13 22q-18 9 -36 19t-20 15q0 5 3 12.5t8 13.5t10 10t9 3 q6 0 22.5 -15t30.5 -30q12 11 27 14zM95 184q4 -6 13 0.5t18 16.5t15.5 20.5t4.5 13.5q-3 6 -12.5 0t-18.5 -16.5t-15.5 -21t-4.5 -13.5z" />
<glyph unicode="&#xa5;" horiz-adv-x="502" d="M194 124q14 16 28 31t25 29q-30 -11 -61.5 -12.5t-58.5 8.5t-47 33t-28 61q-10 44 -6.5 93t16.5 96t33.5 88.5t46 70.5t53.5 42.5t55 5.5q2 -1 11 -7t18 -14t14 -15t1 -9q-27 -12 -56 -43.5t-54 -72.5t-43.5 -87.5t-26 -88.5t-1.5 -75.5t31 -49.5q16 -10 35 -10t39.5 5 t40 12.5t36.5 12.5q53 60 104.5 115.5t105 107t112 100t125.5 93.5q18 12 37 10.5t33 -9.5t21 -18t1 -14q-35 -23 -73 -52.5t-74.5 -61t-70 -63.5t-60.5 -59q11 -7 15 -23.5t-7 -28.5q-32 -33 -74 -53.5t-81 -43.5q-55 -51 -103 -103q19 0 33.5 0.5t20.5 1.5q7 1 9 -2.5 t-1.5 -9t-11 -10.5t-18.5 -7q-9 -1 -24.5 -2t-35.5 -1l-14 -17q23 0 39.5 0.5t24.5 1.5q7 1 9 -2.5t-1.5 -9t-11 -10.5t-18.5 -6q-10 -2 -27.5 -3t-39.5 -2q-30 -36 -57.5 -71.5t-53.5 -71.5q-3 -4 -14 -2t-22.5 8t-20.5 16t-7 22q2 13 19.5 40t44.5 59h-50q-8 0 -8 4.5 t5 10.5t14 10.5t20 4.5h45l14 17h-58q-8 0 -8 4.5t5.5 10.5t14.5 10.5t20 4.5h52z" />
<glyph unicode="&#xa6;" horiz-adv-x="380" d="M311 612q-6 -8 -15.5 -31t-21.5 -56.5t-26.5 -76t-30.5 -89.5h-29l78 264q5 17 15 20.5t18 -1t12.5 -13.5t-0.5 -17zM77 -2q3 10 11 36t19.5 63.5t25.5 85.5t31 103h29q-18 -53 -33 -100t-26.5 -85t-20 -65.5t-12.5 -40.5q-4 -11 -9.5 -15.5t-10 -4t-6 6.5t1.5 16z" />
<glyph unicode="&#xa7;" horiz-adv-x="366" d="M58 174q-10 13 -8.5 29.5t9.5 31.5t20.5 25.5t24.5 11.5h4q5 13 14.5 28.5t22 29t26.5 24t28 13.5q17 4 33 -1t29 -15t20.5 -22.5t7.5 -22.5q0 -7 -5.5 -15.5t-14 -17t-19.5 -16t-22 -12.5q-17 -8 -20 -1t7 19q3 3 9.5 10t13 15t11 14.5t1.5 9.5q-5 4 -17.5 -4.5 t-25.5 -21.5t-22.5 -26.5t-8.5 -20.5q2 -7 14 -7t27.5 0.5t30.5 -2t23 -14.5q9 -13 8 -29.5t-9 -31.5t-20.5 -25.5t-25.5 -11.5h-4q-5 -14 -14.5 -29t-21.5 -28.5t-26.5 -24t-27.5 -13.5q-17 -4 -33 1t-29 15t-20.5 22t-7.5 23q0 7 5.5 15.5t14 17t19.5 16t22 12.5 q17 8 20 1t-7 -19q-3 -3 -9.5 -10t-13 -15t-11 -14.5t-1.5 -9.5q5 -4 17.5 4.5t25 21.5t22 26.5t8.5 20.5q-2 7 -13.5 7t-27 -0.5t-30.5 2t-23 14.5zM209 205q-38 -5 -64 4q-6 -5 -13 -11t-12 -13q17 2 33.5 1t30.5 -6q5 6 12.5 12t12.5 13z" />
<glyph unicode="&#xa8;" horiz-adv-x="264" d="M161 450q4 0 13 -4t18 -10t16 -13t7 -13q2 -13 -4.5 -24t-15.5 -19.5t-19 -12.5t-16 -2q-8 1 -21.5 9.5t-20.5 18.5q-11 -9 -21 -13.5t-17 -2.5q-5 1 -13.5 5.5t-16 11t-13 13.5t-5.5 13q0 7 4.5 16.5t12 18t16.5 15t17 6.5q3 0 9.5 -3t14 -7.5t15 -10t11.5 -10.5 q13 16 29 18z" />
<glyph unicode="&#xa9;" horiz-adv-x="572" d="M401 376q48 -30 71 -65t26 -71.5t-10.5 -71.5t-36.5 -65t-54 -52.5t-62 -33.5q-39 -17 -82 -13t-83.5 23t-73.5 50t-52.5 68t-21.5 76t21 75q25 39 61.5 70.5t82.5 46t100 7.5t114 -44zM372 248q0 -20 -15.5 -35.5t-32.5 -26.5q-8 -5 -18 -5t-18 3t-12.5 8.5t-1.5 12.5 q3 6 12 14.5t18 17.5t14.5 16.5t0.5 12.5q-6 6 -21.5 -9.5t-30 -37.5t-22.5 -44t2 -29q9 -8 33 -1t52 22t55 34t43 35l4 5q11 35 0.5 66t-54.5 52q-41 19 -80 16.5t-72.5 -18t-61 -40.5t-44.5 -51q-20 -29 -24.5 -58t3 -54.5t25 -45.5t42 -32t54.5 -14t62 9q21 8 51.5 33.5 t56.5 58.5q-23 -20 -46.5 -36t-41.5 -21q-14 -4 -35.5 -1.5t-43.5 10.5t-38.5 22t-19.5 33q-4 15 3.5 36t21 41t30 36.5t28.5 23.5t32.5 2.5t40.5 -14t34.5 -23t14.5 -24.5z" />
<glyph unicode="&#xaa;" horiz-adv-x="287" d="M353 415q14 13 22.5 6.5t-5.5 -23.5q-8 -9 -22 -26.5t-29 -35.5t-30 -32t-25 -16q-13 -3 -36.5 4t-40.5 21q-13 -9 -25 -17.5t-24 -12.5q-11 -2 -27 1t-31.5 11.5t-27.5 20.5t-16 28q-4 17 8.5 40.5t30.5 44.5t37.5 36.5t30.5 16.5q7 1 17.5 -1t21 -7t19 -12t11.5 -16 q14 12 24 11q8 -2 17 -5t16.5 -7t12.5 -10t4 -13q0 -8 -8 -21.5t-17 -27.5t-15 -25t-2 -14q3 -2 13.5 4.5t25.5 18t33.5 26.5t36.5 32zM102 319q11 -6 27.5 6.5t31.5 31.5t25.5 39t10.5 30q-4 8 -14 4.5t-22 -14.5t-24.5 -27t-21.5 -30.5t-13.5 -26t0.5 -13.5z" />
<glyph unicode="&#xab;" horiz-adv-x="287" d="M134 302q7 0 10 -7.5t4 -17.5t-1 -20.5t-5 -16.5t-13.5 -15t-24 -18l-27 -18t-22.5 -16q8 -4 17.5 -3.5t18 1.5t15 0.5t8.5 -5.5t0 -12.5t-5.5 -13.5t-9 -10.5t-9.5 -3.5q-11 1 -24 9.5t-24.5 20.5t-18 25.5t-3.5 24.5q2 7 17.5 23.5t34.5 33t37 28.5t25 11zM252 302 q7 0 10 -7.5t4 -17.5t-1 -20.5t-6 -16.5q-3 -6 -13.5 -15t-23.5 -18t-26.5 -18t-22.5 -16q7 -4 16.5 -3.5t18 1.5t15.5 0.5t9 -5.5q1 -5 -0.5 -12.5t-5.5 -13.5t-9 -10.5t-9 -3.5q-11 1 -24 9.5t-24.5 20.5t-18 25.5t-3.5 24.5q2 7 17.5 23.5t34.5 33t37 28.5t25 11z" />
<glyph unicode="&#xac;" horiz-adv-x="324" d="M280 246q-5 -12 -11.5 -24.5t-13.5 -25.5t-12.5 -25t-8.5 -22q-2 -7 -10.5 -7t-17 4.5t-14.5 13.5t-4 20q4 18 9 29.5t11 19.5q-20 -2 -47.5 -2.5t-54.5 -0.5t-48.5 0.5t-28.5 0.5q-8 0 -8 4.5t5 10.5t14 10.5t20 4.5h30.5h44.5t47.5 0.5t40.5 0.5q6 5 16.5 7t21 1 t16.5 -6t3 -14z" />
<glyph unicode="&#xad;" horiz-adv-x="296" d="M60 257h39.5t55.5 0.5t54.5 1t36.5 1.5q7 1 9 -2.5t-1.5 -9t-11 -10.5t-18.5 -6q-16 -3 -45 -4t-59.5 -1.5t-56 0t-34.5 0.5q-8 0 -8 4.5t5 10.5t14 10.5t20 4.5z" />
<glyph unicode="&#xae;" horiz-adv-x="564" d="M401 376q48 -30 71 -65t26 -71.5t-10.5 -71.5t-36.5 -65t-54 -52.5t-62 -33.5q-39 -17 -82 -13t-83.5 23t-73.5 50t-52.5 68t-21.5 76t21 75q25 39 61.5 70.5t82.5 46t100 7.5t114 -44zM226 262q4 -4 12 -3.5t16.5 3.5t16 7t10.5 7q2 4 10.5 4t17.5 -3.5t16.5 -10 t9.5 -15.5q1 -8 -7.5 -23t-18 -29.5t-14.5 -25.5t3 -11t28 12t42.5 27.5t42.5 30.5t27 22q6 31 -6 58.5t-52 46.5q-41 19 -80 16.5t-72.5 -18t-61 -40.5t-44.5 -51q-20 -29 -24.5 -58t3 -54.5t25 -45.5t42 -32t54.5 -14t62 9q15 6 35 20.5t40.5 35t39 45t29.5 50.5 q-10 -12 -23.5 -27.5t-29 -30.5t-31.5 -27t-30 -18q-8 -3 -22.5 0t-29.5 10t-26 18.5t-10 26.5q0 13 6.5 27.5t14.5 31.5q-18 -5 -37 -1t-31 14t-14 24.5t13 31.5q16 19 31.5 21t24.5 -6.5t8.5 -24t-16.5 -30.5z" />
<glyph unicode="&#xaf;" horiz-adv-x="229" d="M60 416q26 0 54.5 0.5t48.5 3.5q8 1 9.5 -3t-1.5 -9t-11 -10t-18 -7q-32 -5 -64 -5h-49q-8 0 -8 4.5t5 10.5t14 10.5t20 4.5z" />
<glyph unicode="&#xb0;" horiz-adv-x="288" d="M118 480q6 0 19 -6t26 -15t23.5 -19.5t10.5 -18.5q2 -18 -7 -35t-23 -29t-28.5 -18t-23.5 -4q-8 2 -19.5 9t-22.5 16t-19 18.5t-8 18.5t6.5 23t17 26.5t23.5 22t25 11.5zM95 378q4 -5 13 1t18 16.5t15.5 21t4.5 13.5q-3 6 -12.5 -0.5t-18.5 -17t-15.5 -21t-4.5 -13.5z " />
<glyph unicode="&#xb1;" horiz-adv-x="257" d="M86 238q-14 0 -26.5 0.5t-18.5 0.5q-8 0 -8 4.5t5 10.5t14 10.5t20 4.5h26q12 29 17 55q2 7 11.5 6.5t19.5 -6.5t17.5 -15.5t5.5 -20.5l-2 -10t-3 -10q12 0 23 0.5t18 1.5q8 1 9.5 -3t-1.5 -9t-11 -10t-18 -7l-29 -3q-5 -18 -11.5 -33t-9.5 -24q-3 -7 -12.5 -4.5 t-19.5 10t-16.5 18.5t-2.5 22zM29 142q12 0 30.5 -0.5t38 -0.5h36.5t28 2q7 1 9 -3t-1.5 -9t-11 -10t-18.5 -7q-16 -3 -37 -3.5t-41.5 0t-38 1t-25.5 0.5t-8 4.5t5 10.5t14 10.5t20 4.5z" />
<glyph unicode="&#xb2;" horiz-adv-x="227" d="M62 390q6 2 8 2q19 10 46 29t52 37.5t42 34t16 18.5q-2 6 -19.5 1t-40.5 -16.5t-46.5 -28t-36.5 -34.5q-3 -4 -8.5 2.5t-8 19t1 30t17.5 35.5q9 12 25.5 20.5t33.5 14.5t32 8.5t22 1.5q9 -2 22 -11t25 -22t19 -27t4 -25q-5 -18 -26 -37.5t-49 -36.5t-58.5 -31t-54.5 -21 q49 -17 79 -3.5t50 45.5q2 4 13.5 0.5t21 -12t12.5 -21t-12 -27.5q-27 -27 -53.5 -27.5t-52 8t-50 17.5t-46.5 3q-9 -3 -12 3t-0.5 15t10.5 19t22 16z" />
<glyph unicode="&#xb3;" horiz-adv-x="227" d="M180 450q28 13 49 24.5t19 16.5q-2 6 -17 2.5t-36 -13t-42.5 -24t-34.5 -31.5q-3 -5 -11 -0.5t-12.5 15t-3.5 26t16 33.5q10 12 26 20.5t33 14.5t31.5 9t22.5 2q9 -2 22 -11t25 -22t19 -27t4 -25q-5 -17 -20 -25t-40 -20q15 -11 22 -20t11 -19q3 -11 -10 -25.5t-31 -27.5 t-37 -21.5t-29 -8.5q-18 0 -34 10.5t-28 24.5t-19 29.5t-7 26.5q1 15 3.5 21t6 6t6.5 -3.5t5 -7.5q10 -35 24 -44t27.5 -4.5t25 15t15.5 15.5q2 2 5.5 5t5 7.5t-0.5 11t-10 14.5q-3 3 -8 6t-7 6.5t0 8t14 9.5z" />
<glyph unicode="&#xb4;" horiz-adv-x="232" d="M40 395q5 4 16 15t23.5 23t25.5 22t22 12t20 -4.5t19 -17t11 -21.5t-3 -18t-21 -13.5t-33 -12.5t-35.5 -10.5t-29.5 -7.5t-17.5 0.5t-7 9t1 12t8.5 11.5z" />
<glyph unicode="&#xb6;" horiz-adv-x="425" d="M274 493q6 0 -11 -55q36 6 71 1q14 30 23 41.5t15 9.5q3 1 0 -14.5t-11 -41.5q11 -7 17.5 -15.5t1.5 -21.5q-2 -6 -7 -14t-12.5 -17.5t-16 -19t-16.5 -16.5q-9 -7 -17.5 -33t-16.5 -62t-15 -78t-14 -80.5t-13 -69.5t-12 -45q-6 -16 -19.5 -40t-27.5 -46t-27.5 -37.5 t-19.5 -13.5q-5 1 5.5 33.5t31.5 95t51 154.5t64 212q-8 7 -25 13.5t-39 13.5l-5 -15q-2 -8 -7.5 -32t-13 -57t-16 -71.5t-17.5 -76.5t-17.5 -72.5t-15.5 -57.5q-5 -16 -18 -40t-27.5 -46t-28 -37t-19.5 -14q-5 1 -0.5 18.5t19 61l39 117t59.5 187.5q-6 -2 -9 -1q-6 0 -23 7 t-33.5 19t-27 28.5t-3.5 36.5q8 26 24.5 47t38 37t47.5 27t52 18l4 13q15 28 23.5 40t14.5 9z" />
<glyph unicode="&#xb7;" horiz-adv-x="170" d="M82 300q4 0 13 -4t18 -10t16 -13t7 -13q1 -13 -5 -24.5t-15.5 -19.5t-19.5 -12.5t-16 -3.5q-5 1 -13.5 6t-16 11.5t-13 13.5t-5.5 13q0 7 4.5 16.5t12 18t16.5 15t17 6.5z" />
<glyph unicode="&#xb8;" horiz-adv-x="173" d="M95 127q7 7 13 7.5t10 -2.5t5.5 -8.5t-1.5 -9.5q-5 -8 -15.5 -14.5t-11.5 -14.5q0 -4 11.5 -8.5t23 -12t17 -20t-6.5 -32.5t-32.5 -22t-41.5 5.5t-37 20t-19 21.5t-1 14.5t6.5 8t10 0.5t8.5 -8q5 -13 19.5 -17.5t19.5 7.5t-6 16.5t-18 13.5q-3 4 1.5 10.5t12 14 t16.5 15.5t16 15z" />
<glyph unicode="&#xb9;" horiz-adv-x="198" d="M293 499q-3 -9 -13 -25t-23.5 -35.5t-28.5 -40t-29.5 -38.5t-26 -31t-17.5 -18t-18 -5t-22 3.5t-15 10t3 16.5q3 3 10 14t17.5 26.5t23.5 34t27 37.5q-12 -9 -24 -11.5t-21 -1t-12.5 6t3.5 9.5q4 2 13 7.5t20.5 13t24 17.5t24.5 22q12 16 19 19q5 1 16.5 -1.5t23 -7 t19.5 -10.5t6 -12z" />
<glyph unicode="&#xba;" d="M212 514q15 0 26 -7t14 -19q13 -3 26.5 -10t20.5 -20.5t4.5 -34.5t-22.5 -52q-13 -20 -32.5 -36t-46.5 -24q-12 -4 -30 0t-34 15t-27 28t-8 38q2 20 11.5 41.5t23.5 39.5t33 29.5t41 11.5zM173 349q5 -8 21 0t30 25q-10 8 -18 21.5t-12 31.5q-17 -23 -23.5 -45.5 t2.5 -32.5z" />
<glyph unicode="&#xbb;" horiz-adv-x="284" d="M29 125q-7 0 -10 8t-4 18t1 20t6 16q3 6 13.5 15t23.5 18t26.5 18t22.5 16q-8 4 -17 3.5t-17.5 -1.5t-15.5 -0.5t-9 6.5q-2 5 0 12t5.5 13.5t8.5 10.5t10 3q10 -1 23.5 -9.5t25 -20.5t18 -25.5t3.5 -24.5q-2 -7 -17.5 -23t-34.5 -32.5t-37 -28.5t-25 -12zM146 125 q-7 0 -10 8t-3.5 18t1.5 20t5 16t13.5 15t23.5 18t26.5 18t23.5 16q-8 4 -17.5 3.5t-18 -1.5t-15 -0.5t-8.5 6.5q-2 5 0 12t5.5 13.5t8.5 10.5t10 3q10 -1 23.5 -9.5t24.5 -20.5t17.5 -25.5t3.5 -24.5q-2 -7 -17 -23t-34 -32.5t-37.5 -28.5t-25.5 -12z" />
<glyph unicode="&#xbc;" horiz-adv-x="486" d="M436 217q-5 -14 -25.5 -43t-45 -60.5t-47.5 -57.5t-32 -33q-6 -5 -18 -5.5t-21.5 2.5t-14.5 9.5t3 17.5l30 48q-15 -9 -27.5 -13t-20.5 -2q-11 5 -18.5 16t-10.5 24t-2.5 25.5t4.5 21.5q9 19 18.5 37.5t32.5 39.5q7 6 21.5 5.5t28.5 -4.5t23 -11t4 -13q-11 -14 -27.5 -31 t-31 -32t-24.5 -27t-9 -15q1 -4 9.5 -0.5t20.5 10.5t26 16.5t28 17.5q20 30 38.5 55.5t27.5 32.5q4 4 14.5 1.5t21 -7.5t18 -12t6.5 -13zM250 402q-5 -14 -24 -42t-41.5 -58t-43 -55.5t-29.5 -32.5q-6 -5 -18 -5t-22 3t-15 10t3 17q3 3 10 14t17.5 26.5t23.5 34t27 36.5 q-12 -9 -24 -11.5t-21 -0.5t-12.5 6.5t3.5 9.5q4 2 12.5 7.5t20 13t24.5 17.5t25 22l14 17h1l4 2q5 1 16.5 -1.5t22.5 -7.5t19 -11t7 -11zM11 59q10 11 35.5 39.5t59 67t71.5 81.5t73 82t62 70.5t40 45.5q12 13 22 12.5t15.5 -7.5t6 -17t-7.5 -15q-12 -7 -39.5 -33.5 t-63 -63t-75 -79t-75 -81.5t-63.5 -69.5t-40 -44.5q-8 -9 -14.5 -11t-10.5 1t-3.5 9t7.5 13z" />
<glyph unicode="&#xbd;" horiz-adv-x="500" d="M252 110q19 10 46.5 28.5t52 37t41.5 33.5t16 19q-2 6 -19.5 1t-40.5 -16.5t-46.5 -28t-36.5 -34.5q-3 -4 -8.5 2t-7.5 19t1 30t18 35q9 12 25 21t33 15t32 8.5t22 1.5q9 -2 22 -11t25 -22t19 -27t4 -25q-5 -18 -26 -37.5t-49 -36.5t-58.5 -30.5t-53.5 -20.5 q49 -17 78.5 -4t49.5 45q2 3 13.5 -0.5t21.5 -11.5t12.5 -20.5t-12.5 -27.5q-27 -27 -53.5 -27.5t-52 8t-50 17.5t-46.5 3q-9 -3 -12 3t-0.5 15t11 19t22.5 16zM259 395q-5 -14 -23.5 -42t-41 -58.5t-43.5 -56t-30 -32.5q-6 -5 -18 -5t-22 3.5t-14.5 10.5t3.5 17q3 3 10 14 t17.5 26.5t23.5 34t27 36.5q-12 -9 -24.5 -11.5t-21.5 -0.5t-12 6.5t4 9.5q3 2 12 7.5t20.5 13t24 17.5t24.5 22l15 17h1l3 2q5 1 16.5 -1.5t23 -7.5t19.5 -11t6 -11zM42 59q10 11 35.5 39.5t59.5 67t72 81.5t72.5 82t62 70.5t39.5 45.5q12 13 22 12.5t15.5 -7.5t6 -17 t-7.5 -15q-12 -7 -39.5 -33.5t-63 -63t-74.5 -79t-74.5 -81.5t-63.5 -69.5t-40 -44.5q-8 -9 -15 -11t-11 1t-3.5 9t7.5 13z" />
<glyph unicode="&#xbe;" horiz-adv-x="532" d="M498 235q-3 -9 -14 -25.5t-25.5 -36.5t-31 -41.5t-32 -40t-28.5 -32t-19 -18.5t-18 -5.5t-21.5 2.5t-14 9.5t3.5 17.5l30 48q-16 -9 -28.5 -13t-19.5 -2q-11 5 -18.5 16t-11 24t-3 25.5t4.5 21.5q9 19 19 37.5t33 39.5q7 6 21.5 5.5t28.5 -4.5t22.5 -11t3.5 -13 q-11 -14 -27 -31t-31 -32t-25 -27t-9 -15q1 -4 9.5 -0.5t20.5 10.5t26 16.5t28 17.5q21 30 39 55.5t27 32.5q4 4 14.5 1.5t21.5 -7.5t18.5 -12t5.5 -13zM127 374q28 13 49 24.5t20 16.5q-2 6 -17.5 3t-36.5 -12.5t-42.5 -24.5t-34.5 -32q-3 -5 -10.5 -0.5t-12.5 15.5 t-3.5 26.5t15.5 33.5q10 12 26 20.5t33 14.5t32 8.5t22 1.5q9 -2 22 -11t25 -22t19.5 -27t4.5 -25q-5 -17 -20.5 -25t-39.5 -19q14 -11 21 -20.5t11 -19.5q3 -11 -10 -25.5t-31 -27.5t-37 -21.5t-29 -8.5q-18 0 -34 10.5t-28 25t-19 30t-6 25.5q0 15 3 21t6 6t6 -3.5t5 -7.5 q10 -35 24 -43.5t28 -4.5t25 14.5t15 15.5l5.5 5.5t5 8t-0.5 10.5t-10 14q-3 3 -8 6t-7 6.5t0 8t14 9.5zM50 59q10 11 35.5 39.5t59.5 67t72 81.5t72.5 82t62 70.5t39.5 45.5q12 13 22 12.5t16 -7.5t6 -17t-8 -15q-12 -7 -39.5 -33.5t-63 -63t-74.5 -79t-74.5 -81.5 t-63.5 -69.5t-40 -44.5q-8 -9 -15 -11t-11 1t-3.5 9t7.5 13z" />
<glyph unicode="&#xbf;" horiz-adv-x="283" d="M386 529q6 0 14.5 -3t16 -8t12.5 -11.5t4 -13.5q-1 -6 -5.5 -16t-10.5 -19t-13.5 -16.5t-14.5 -9.5t-17 2t-19 10.5t-14.5 14t-4.5 13.5q0 6 6 15t14 18t17 16t15 8zM323 342q-12 -25 -35.5 -47.5t-51 -42t-57 -36t-53 -28t-38.5 -19t-14 -9.5q2 -6 23 -1t49 17t56 28.5 t44 34.5q4 4 12.5 -2.5t14 -20t3 -31.5t-19.5 -36q-11 -12 -30.5 -21.5t-40 -15.5t-38.5 -8.5t-27 -1.5q-18 2 -39.5 14.5t-37.5 29t-23.5 34t2.5 28.5q3 10 20 22.5t42 26t54.5 28t58 28.5t51.5 27.5t36 25.5q8 7 16 7t14 -4.5t9 -12t0 -14.5z" />
<glyph unicode="&#xc0;" horiz-adv-x="839" d="M55 94q53 91 136.5 177t183 153.5t207.5 108.5t210 41q34 0 60 -7t41 -21t18.5 -36t-7.5 -53q-12 -34 -34.5 -79t-50 -92.5t-57.5 -95t-56.5 -87t-47 -67.5t-29.5 -38q-7 -9 -24.5 -12t-34 -0.5t-26 9.5t-0.5 19q14 20 30.5 43.5t33 48.5t32 49.5t27.5 46.5 q-74 -13 -143.5 -29.5t-136.5 -37t-133.5 -46t-134.5 -55.5q-13 -24 -18.5 -41t-10.5 -31q-2 -4 -10.5 -4.5t-19 2.5t-20 8t-12.5 12q-6 12 -4.5 27.5t6.5 32t12.5 31t12.5 23.5zM697 260q17 27 38.5 59.5t40.5 64.5t34 62t19 53t-5.5 37t-38.5 14q-59 0 -120.5 -23 t-123 -61.5t-120 -88t-111 -102.5t-96.5 -105.5t-76 -95.5q52 27 122 56t146.5 54.5t152 45.5t138.5 30zM834 601q-7 2 -22 6t-31.5 9t-31.5 11t-22 13q-6 7 -5.5 20t5.5 25t13 20t17 7q9 -2 22 -11.5t27 -22t27 -25.5t21 -22t8.5 -16t-3.5 -11t-11 -5t-14 2z" />
<glyph unicode="&#xc1;" horiz-adv-x="839" d="M55 94q53 91 136.5 177t183 153.5t207.5 108.5t210 41q34 0 60 -7t41 -21t18.5 -36t-7.5 -53q-12 -34 -34.5 -79t-50 -92.5t-57.5 -95t-56.5 -87t-47 -67.5t-29.5 -38q-7 -9 -24.5 -12t-34 -0.5t-26 9.5t-0.5 19q14 20 30.5 43.5t33 48.5t32 49.5t27.5 46.5 q-74 -13 -143.5 -29.5t-136.5 -37t-133.5 -46t-134.5 -55.5q-13 -24 -18.5 -41t-10.5 -31q-2 -4 -10.5 -4.5t-19 2.5t-20 8t-12.5 12q-6 12 -4.5 27.5t6.5 32t12.5 31t12.5 23.5zM697 260q17 27 38.5 59.5t40.5 64.5t34 62t19 53t-5.5 37t-38.5 14q-59 0 -120.5 -23 t-123 -61.5t-120 -88t-111 -102.5t-96.5 -105.5t-76 -95.5q52 27 122 56t146.5 54.5t152 45.5t138.5 30zM764 644q6 4 16.5 15t23.5 23t26 22t22 12t20 -4.5t18.5 -17t11 -21.5t-2.5 -18t-21 -13.5t-33 -12t-35.5 -10t-29.5 -7.5t-17.5 0t-7 8.5t1 12t7.5 11.5z" />
<glyph unicode="&#xc2;" horiz-adv-x="839" d="M55 94q53 91 136.5 177t183 153.5t207.5 108.5t210 41q34 0 60 -7t41 -21t18.5 -36t-7.5 -53q-12 -34 -34.5 -79t-50 -92.5t-57.5 -95t-56.5 -87t-47 -67.5t-29.5 -38q-7 -9 -24.5 -12t-34 -0.5t-26 9.5t-0.5 19q14 20 30.5 43.5t33 48.5t32 49.5t27.5 46.5 q-74 -13 -143.5 -29.5t-136.5 -37t-133.5 -46t-134.5 -55.5q-13 -24 -18.5 -41t-10.5 -31q-2 -4 -10.5 -4.5t-19 2.5t-20 8t-12.5 12q-6 12 -4.5 27.5t6.5 32t12.5 31t12.5 23.5zM697 260q17 27 38.5 59.5t40.5 64.5t34 62t19 53t-5.5 37t-38.5 14q-59 0 -120.5 -23 t-123 -61.5t-120 -88t-111 -102.5t-96.5 -105.5t-76 -95.5q52 27 122 56t146.5 54.5t152 45.5t138.5 30zM715 623q1 7 17.5 21t37.5 28.5t40.5 25t27.5 10.5q12 0 23 -10t19.5 -24t13.5 -29t4 -25q-1 -5 -6.5 -8.5t-12.5 -5.5t-14.5 -2t-11.5 3q-5 4 -3.5 10.5t4.5 14.5 t6 16.5t2 17.5q-10 -8 -22.5 -18.5t-24.5 -20.5t-23 -18t-18 -10t-17.5 -1t-20 4.5t-16 8.5t-5.5 12z" />
<glyph unicode="&#xc3;" horiz-adv-x="839" d="M55 94q53 91 136.5 177t183 153.5t207.5 108.5t210 41q34 0 60 -7t41 -21t18.5 -36t-7.5 -53q-12 -34 -34.5 -79t-50 -92.5t-57.5 -95t-56.5 -87t-47 -67.5t-29.5 -38q-7 -9 -24.5 -12t-34 -0.5t-26 9.5t-0.5 19q14 20 30.5 43.5t33 48.5t32 49.5t27.5 46.5 q-74 -13 -143.5 -29.5t-136.5 -37t-133.5 -46t-134.5 -55.5q-13 -24 -18.5 -41t-10.5 -31q-2 -4 -10.5 -4.5t-19 2.5t-20 8t-12.5 12q-6 12 -4.5 27.5t6.5 32t12.5 31t12.5 23.5zM697 260q17 27 38.5 59.5t40.5 64.5t34 62t19 53t-5.5 37t-38.5 14q-59 0 -120.5 -23 t-123 -61.5t-120 -88t-111 -102.5t-96.5 -105.5t-76 -95.5q52 27 122 56t146.5 54.5t152 45.5t138.5 30zM728 653q11 16 31 32.5t34 22.5q7 3 16 3t18 -2t16 -5.5t10 -7.5q8 -9 8.5 -19.5t1.5 -10.5t14 4.5t25 27.5q6 11 18.5 9t9.5 -16t-11 -27.5t-18 -24.5t-20.5 -19 t-17.5 -10q-16 -5 -38.5 -3.5t-33.5 12.5q-4 4 -7 10t-5 11q-3 6 -4 12q-7 -5 -13 -11t-12 -11q-7 -6 -13 -6.5t-10 3.5t-4 11t5 15z" />
<glyph unicode="&#xc4;" horiz-adv-x="839" d="M55 94q53 91 136.5 177t183 153.5t207.5 108.5t210 41q34 0 60 -7t41 -21t18.5 -36t-7.5 -53q-12 -34 -34.5 -79t-50 -92.5t-57.5 -95t-56.5 -87t-47 -67.5t-29.5 -38q-7 -9 -24.5 -12t-34 -0.5t-26 9.5t-0.5 19q14 20 30.5 43.5t33 48.5t32 49.5t27.5 46.5 q-74 -13 -143.5 -29.5t-136.5 -37t-133.5 -46t-134.5 -55.5q-13 -24 -18.5 -41t-10.5 -31q-2 -4 -10.5 -4.5t-19 2.5t-20 8t-12.5 12q-6 12 -4.5 27.5t6.5 32t12.5 31t12.5 23.5zM697 260q17 27 38.5 59.5t40.5 64.5t34 62t19 53t-5.5 37t-38.5 14q-59 0 -120.5 -23 t-123 -61.5t-120 -88t-111 -102.5t-96.5 -105.5t-76 -95.5q52 27 122 56t146.5 54.5t152 45.5t138.5 30zM875 685q4 0 13 -4t18 -10t16 -13t7 -12q2 -13 -4.5 -24.5t-15.5 -20t-19 -12.5t-16 -2q-8 1 -21.5 9.5t-20.5 19.5q-11 -9 -21 -14t-17 -3q-5 1 -13.5 5.5t-16 11 t-13 13.5t-5.5 13q0 7 4.5 16.5t12 18t16.5 15t17 6.5q3 0 9.5 -2.5t14 -7t15 -10t11.5 -11.5q13 16 29 18z" />
<glyph unicode="&#xc5;" horiz-adv-x="839" d="M55 94q53 91 136.5 177t183 153.5t207.5 108.5t210 41q34 0 60 -7t41 -21t18.5 -36t-7.5 -53q-12 -34 -34.5 -79t-50 -92.5t-57.5 -95t-56.5 -87t-47 -67.5t-29.5 -38q-7 -9 -24.5 -12t-34 -0.5t-26 9.5t-0.5 19q14 20 30.5 43.5t33 48.5t32 49.5t27.5 46.5 q-74 -13 -143.5 -29.5t-136.5 -37t-133.5 -46t-134.5 -55.5q-13 -24 -18.5 -41t-10.5 -31q-2 -4 -10.5 -4.5t-19 2.5t-20 8t-12.5 12q-6 12 -4.5 27.5t6.5 32t12.5 31t12.5 23.5zM697 260q17 27 38.5 59.5t40.5 64.5t34 62t19 53t-5.5 37t-38.5 14q-59 0 -120.5 -23 t-123 -61.5t-120 -88t-111 -102.5t-96.5 -105.5t-76 -95.5q52 27 122 56t146.5 54.5t152 45.5t138.5 30zM842 743q6 0 19 -6t26.5 -15t23.5 -19.5t11 -18.5q2 -18 -7 -35t-23 -29t-28.5 -18t-23.5 -4q-8 2 -20 9t-23 16t-19 18.5t-8 18.5t7 23t17.5 26.5t23 22t24.5 11.5z M820 641q4 -6 13 0.5t18 16.5t15.5 20.5t4.5 13.5q-3 6 -12.5 0t-18.5 -16.5t-15.5 -21t-4.5 -13.5z" />
<glyph unicode="&#xc6;" horiz-adv-x="1446" d="M55 94q53 91 136.5 177t183 153.5t207.5 108.5t210 41q32 0 57 -6.5t40.5 -19t20.5 -32.5t-3 -47q60 38 132.5 70.5t149 55.5t150.5 35.5t137.5 12t110 -15t67.5 -46.5q17 -26 12.5 -53.5t-20.5 -51t-39 -40.5t-43 -23q-21 -6 -38.5 -2t-28 12t-14 16.5t4.5 11.5 q10 4 26.5 12t34.5 18.5t35 22.5t28.5 24.5t15 24.5t-5.5 23q-14 18 -51.5 21t-89.5 -5t-113 -24.5t-122.5 -37.5t-119 -45t-100.5 -46q-18 -9 -43.5 -23t-53 -31.5t-54 -38t-46.5 -42.5q-9 -17 -18.5 -33t-19.5 -32q-4 -17 3 -37q7 -17 25 -22.5t38 -5t38 4t24 3.5 q55 31 106 51t93.5 30.5t74.5 12t50 -5.5q26 -9 12.5 -26t-50 -36t-89.5 -36t-107 -26q-13 -3 -37 -16t-51 -31.5t-54 -41t-46 -44.5t-27.5 -41.5t2.5 -33.5q13 -18 50.5 -13.5t90 22.5t115 47.5t124.5 62t119 65t99 58.5q10 6 17.5 9.5t10.5 3t0.5 -7t-13.5 -19.5 q-14 -17 -52.5 -51t-91.5 -71.5t-116 -74t-126.5 -59.5t-123.5 -27t-106 23q-32 18 -45.5 46t-6.5 60t34 66.5t77 65.5q-27 5 -51 17.5t-39 30.5q-22 -35 -43 -66.5t-39 -57.5t-31.5 -44.5t-19.5 -25.5q-7 -9 -24.5 -12t-34 -0.5t-26 9.5t-0.5 19q14 20 30.5 43.5t33 48.5 t32 49.5t27.5 46.5q-74 -13 -143.5 -29.5t-136.5 -37t-133.5 -46t-134.5 -55.5q-13 -24 -18.5 -41t-10.5 -31q-2 -4 -10.5 -4.5t-19 2.5t-20 8t-12.5 12q-6 12 -4.5 27.5t6.5 32t12.5 31t12.5 23.5zM697 260q17 27 38.5 59.5t40.5 64.5t34 62t19 53t-5.5 37t-38.5 14 q-59 0 -120.5 -23t-123 -61.5t-120 -88t-111 -102.5t-96.5 -105.5t-76 -95.5q52 27 122 56t146.5 54.5t152 45.5t138.5 30z" />
<glyph unicode="&#xc7;" horiz-adv-x="548" d="M37 74q-26 61 -5.5 126t74 129.5t133 124t171.5 109.5t189 86.5t185 54t161 12.5t116 -38q35 -27 37.5 -55.5t-18.5 -56.5t-59.5 -55t-86 -51t-98 -45t-95 -36.5t-77.5 -24.5t-45 -11q-10 -1 -19.5 8t-15 20.5t-4.5 22.5t13 13q-2 0 21 6.5t60.5 18.5t85 28t95.5 35 t91 39.5t71.5 41.5t38 41.5t-10.5 38.5q-29 27 -91.5 23.5t-144.5 -28.5t-175.5 -68t-183 -96.5t-168 -114t-130.5 -119t-70.5 -112t12.5 -94.5q15 -21 47 -23.5t72.5 7.5t86 29t88 41t79 45t59.5 41q6 5 7.5 3t0 -8.5t-6 -16.5t-10.5 -20q-19 -32 -57.5 -66.5t-87 -61.5 t-102 -42t-102.5 -7q0 -2 -0.5 -2.5t-0.5 -1.5q-5 -8 -16 -14.5t-12 -14.5q0 -4 11.5 -8.5t23 -12t17.5 -20t-6 -32.5t-33 -22t-42 5.5t-37 20t-19 21.5t-0.5 14.5t7 8t9.5 0.5t8 -8q5 -13 19.5 -17.5t20.5 7.5q3 6 0.5 9.5t-7 6.5t-9.5 6t-8 8q-3 4 0.5 10.5t10.5 13.5 t16 14.5t16 14.5q-31 11 -57 34.5t-43 64.5z" />
<glyph unicode="&#xc8;" horiz-adv-x="784" d="M76 227q-12 51 15.5 100.5t82 95t129.5 84.5t157.5 68.5t166 47t155.5 20t125.5 -12t76.5 -49.5q17 -26 13 -53.5t-20.5 -51t-39.5 -40.5t-43 -23q-21 -6 -38 -2t-28 12t-14.5 16.5t4.5 11.5q15 6 43.5 20.5t53 32.5t38 37t0.5 35q-15 18 -52.5 21t-89.5 -5t-113 -24.5 t-122.5 -37.5t-119 -45t-100.5 -46q-19 -9 -45.5 -24t-55.5 -34t-56.5 -41t-46.5 -45t-27.5 -47t0.5 -46q7 -17 25 -22.5t38 -5t38 4t24 3.5q55 31 106 51t93.5 30.5t74.5 12t50 -5.5q25 -9 12 -26t-50 -36t-90 -36t-106 -26q-13 -3 -37 -16t-51.5 -31.5t-54.5 -41 t-46 -44.5t-27.5 -41.5t2.5 -33.5q13 -18 51 -13.5t90.5 22.5t115 47.5t124.5 62t119 65t99 58.5q9 6 16.5 9.5t10.5 3t0.5 -7t-13.5 -19.5q-14 -17 -52 -51t-91 -71.5t-116.5 -74t-127 -59.5t-123 -27t-105.5 23q-32 18 -45.5 46t-7 60t33.5 66.5t77 65.5q-38 8 -68.5 29.5 t-37.5 53.5zM797 678q-7 2 -22 6t-31.5 8.5t-31.5 10.5t-22 13q-6 7 -5.5 20t5.5 25t13 20.5t17 6.5t22 -11t27 -21.5t27 -25.5t21 -22t8.5 -16t-3.5 -11t-11 -5t-14 2z" />
<glyph unicode="&#xc9;" horiz-adv-x="784" d="M76 227q-12 51 15.5 100.5t82 95t129.5 84.5t157.5 68.5t166 47t155.5 20t125.5 -12t76.5 -49.5q17 -26 13 -53.5t-20.5 -51t-39.5 -40.5t-43 -23q-21 -6 -38 -2t-28 12t-14.5 16.5t4.5 11.5q15 6 43.5 20.5t53 32.5t38 37t0.5 35q-15 18 -52.5 21t-89.5 -5t-113 -24.5 t-122.5 -37.5t-119 -45t-100.5 -46q-19 -9 -45.5 -24t-55.5 -34t-56.5 -41t-46.5 -45t-27.5 -47t0.5 -46q7 -17 25 -22.5t38 -5t38 4t24 3.5q55 31 106 51t93.5 30.5t74.5 12t50 -5.5q25 -9 12 -26t-50 -36t-90 -36t-106 -26q-13 -3 -37 -16t-51.5 -31.5t-54.5 -41 t-46 -44.5t-27.5 -41.5t2.5 -33.5q13 -18 51 -13.5t90.5 22.5t115 47.5t124.5 62t119 65t99 58.5q9 6 16.5 9.5t10.5 3t0.5 -7t-13.5 -19.5q-14 -17 -52 -51t-91 -71.5t-116.5 -74t-127 -59.5t-123 -27t-105.5 23q-32 18 -45.5 46t-7 60t33.5 66.5t77 65.5q-38 8 -68.5 29.5 t-37.5 53.5zM654 688q5 4 16 15t23.5 23t25.5 22t23 12q9 2 20 -5t18.5 -17.5t10.5 -21.5t-3 -18t-20.5 -13.5t-32.5 -12t-35.5 -10t-29.5 -7.5t-18 0.5t-7.5 9t1.5 12t8 11.5z" />
<glyph unicode="&#xca;" horiz-adv-x="784" d="M76 227q-12 51 15.5 100.5t82 95t129.5 84.5t157.5 68.5t166 47t155.5 20t125.5 -12t76.5 -49.5q17 -26 13 -53.5t-20.5 -51t-39.5 -40.5t-43 -23q-21 -6 -38 -2t-28 12t-14.5 16.5t4.5 11.5q15 6 43.5 20.5t53 32.5t38 37t0.5 35q-15 18 -52.5 21t-89.5 -5t-113 -24.5 t-122.5 -37.5t-119 -45t-100.5 -46q-19 -9 -45.5 -24t-55.5 -34t-56.5 -41t-46.5 -45t-27.5 -47t0.5 -46q7 -17 25 -22.5t38 -5t38 4t24 3.5q55 31 106 51t93.5 30.5t74.5 12t50 -5.5q25 -9 12 -26t-50 -36t-90 -36t-106 -26q-13 -3 -37 -16t-51.5 -31.5t-54.5 -41 t-46 -44.5t-27.5 -41.5t2.5 -33.5q13 -18 51 -13.5t90.5 22.5t115 47.5t124.5 62t119 65t99 58.5q9 6 16.5 9.5t10.5 3t0.5 -7t-13.5 -19.5q-14 -17 -52 -51t-91 -71.5t-116.5 -74t-127 -59.5t-123 -27t-105.5 23q-32 18 -45.5 46t-7 60t33.5 66.5t77 65.5q-38 8 -68.5 29.5 t-37.5 53.5zM683 691q1 7 17.5 21t37 28.5t40 25t27.5 10.5q12 0 23 -10t20 -24t13.5 -28.5t3.5 -24.5q0 -5 -5.5 -9t-12.5 -6t-14.5 -1.5t-11.5 3.5q-5 3 -3.5 9.5t4.5 14.5t5.5 17t1.5 17q-9 -8 -21.5 -18.5t-24.5 -20.5t-23 -18t-18 -10t-17.5 -1t-20.5 4.5t-16.5 8.5 t-4.5 12z" />
<glyph unicode="&#xcb;" horiz-adv-x="784" d="M76 227q-12 51 15.5 100.5t82 95t129.5 84.5t157.5 68.5t166 47t155.5 20t125.5 -12t76.5 -49.5q17 -26 13 -53.5t-20.5 -51t-39.5 -40.5t-43 -23q-21 -6 -38 -2t-28 12t-14.5 16.5t4.5 11.5q15 6 43.5 20.5t53 32.5t38 37t0.5 35q-15 18 -52.5 21t-89.5 -5t-113 -24.5 t-122.5 -37.5t-119 -45t-100.5 -46q-19 -9 -45.5 -24t-55.5 -34t-56.5 -41t-46.5 -45t-27.5 -47t0.5 -46q7 -17 25 -22.5t38 -5t38 4t24 3.5q55 31 106 51t93.5 30.5t74.5 12t50 -5.5q25 -9 12 -26t-50 -36t-90 -36t-106 -26q-13 -3 -37 -16t-51.5 -31.5t-54.5 -41 t-46 -44.5t-27.5 -41.5t2.5 -33.5q13 -18 51 -13.5t90.5 22.5t115 47.5t124.5 62t119 65t99 58.5q9 6 16.5 9.5t10.5 3t0.5 -7t-13.5 -19.5q-14 -17 -52 -51t-91 -71.5t-116.5 -74t-127 -59.5t-123 -27t-105.5 23q-32 18 -45.5 46t-7 60t33.5 66.5t77 65.5q-38 8 -68.5 29.5 t-37.5 53.5zM848 773q4 0 13 -4t18 -10t16 -13t7 -13q2 -13 -4 -24.5t-15.5 -19.5t-19.5 -12.5t-16 -2.5q-8 2 -21 10.5t-21 18.5q-10 -9 -20.5 -14t-16.5 -3q-5 1 -13.5 6t-16 11.5t-13 13.5t-5.5 13q0 7 4.5 16.5t12 18t16 15t16.5 6.5q3 0 10 -3t14.5 -7.5t15 -10 t11.5 -10.5q6 7 13.5 12t14.5 6z" />
<glyph unicode="&#xcc;" horiz-adv-x="566" d="M377 535q24 6 54.5 14t62.5 16.5t63.5 16.5t57 15t42.5 11.5t21 5.5t14 -3.5t19.5 -11.5t14.5 -14t1 -11q-34 -33 -70 -86t-74 -114.5t-78 -126t-81.5 -120.5t-84 -98t-86.5 -58q-29 -11 -56.5 -9.5t-50.5 13t-42 31.5t-32 46q-6 12 0.5 13.5t12.5 -9.5q29 -43 63 -49 t68 10t63.5 45.5t49.5 57.5q43 61 82.5 119.5t77.5 115.5t77 112t80 109q-40 -10 -79 -25t-77 -31t-76.5 -31t-77.5 -25q-29 -7 -33.5 1.5t5.5 22.5t29.5 28t39.5 19zM727 631q-7 2 -22 6t-31.5 9t-31.5 11t-22 13q-6 7 -5.5 20t5.5 25t13 20t17 7q9 -2 22 -11.5t27.5 -22 t27.5 -25.5t21 -22t8 -16t-4 -11t-11 -5t-14 2z" />
<glyph unicode="&#xcd;" horiz-adv-x="566" d="M377 535q24 6 54.5 14t62.5 16.5t63.5 16.5t57 15t42.5 11.5t21 5.5t14 -3.5t19.5 -11.5t14.5 -14t1 -11q-34 -33 -70 -86t-74 -114.5t-78 -126t-81.5 -120.5t-84 -98t-86.5 -58q-29 -11 -56.5 -9.5t-50.5 13t-42 31.5t-32 46q-6 12 0.5 13.5t12.5 -9.5q29 -43 63 -49 t68 10t63.5 45.5t49.5 57.5q43 61 82.5 119.5t77.5 115.5t77 112t80 109q-40 -10 -79 -25t-77 -31t-76.5 -31t-77.5 -25q-29 -7 -33.5 1.5t5.5 22.5t29.5 28t39.5 19zM634 673q5 4 16 15t23.5 23t25.5 22t22 12t20 -4.5t19 -17t11 -21.5t-3 -18t-21 -13.5t-33 -12t-35.5 -10 t-29.5 -7.5t-17.5 0t-7 8.5t1 12t8.5 11.5z" />
<glyph unicode="&#xce;" horiz-adv-x="566" d="M377 535q24 6 54.5 14t62.5 16.5t63.5 16.5t57 15t42.5 11.5t21 5.5t14 -3.5t19.5 -11.5t14.5 -14t1 -11q-34 -33 -70 -86t-74 -114.5t-78 -126t-81.5 -120.5t-84 -98t-86.5 -58q-29 -11 -56.5 -9.5t-50.5 13t-42 31.5t-32 46q-6 12 0.5 13.5t12.5 -9.5q29 -43 63 -49 t68 10t63.5 45.5t49.5 57.5q43 61 82.5 119.5t77.5 115.5t77 112t80 109q-40 -10 -79 -25t-77 -31t-76.5 -31t-77.5 -25q-29 -7 -33.5 1.5t5.5 22.5t29.5 28t39.5 19zM596 672q1 7 17.5 21t37.5 28.5t40.5 25t27.5 10.5q12 0 23 -10t19.5 -24t13.5 -28.5t4 -24.5 q0 -5 -5.5 -9t-13 -6t-15 -2t-11.5 3q-5 4 -3.5 10.5t4.5 14.5t6 16.5t2 17.5q-9 -8 -21.5 -18.5t-25 -20.5t-23.5 -18t-18 -10t-17.5 -1t-20 4.5t-16 8.5t-5.5 12z" />
<glyph unicode="&#xcf;" horiz-adv-x="566" d="M377 535q24 6 54.5 14t62.5 16.5t63.5 16.5t57 15t42.5 11.5t21 5.5t14 -3.5t19.5 -11.5t14.5 -14t1 -11q-34 -33 -70 -86t-74 -114.5t-78 -126t-81.5 -120.5t-84 -98t-86.5 -58q-29 -11 -56.5 -9.5t-50.5 13t-42 31.5t-32 46q-6 12 0.5 13.5t12.5 -9.5q29 -43 63 -49 t68 10t63.5 45.5t49.5 57.5q43 61 82.5 119.5t77.5 115.5t77 112t80 109q-40 -10 -79 -25t-77 -31t-76.5 -31t-77.5 -25q-29 -7 -33.5 1.5t5.5 22.5t29.5 28t39.5 19zM748 731q4 0 13 -4t18 -10t16 -13t7 -13q1 -13 -5 -24.5t-15.5 -19.5t-19.5 -12.5t-16 -2.5 q-8 2 -21 10.5t-21 18.5q-10 -9 -20 -14t-17 -3q-5 1 -13.5 6t-16 11.5t-13 13.5t-5.5 13q0 7 4.5 16.5t12 18t16 15t16.5 6.5q3 0 10 -3t14.5 -7.5t15 -10t11.5 -10.5q6 7 13.5 12t15.5 6z" />
<glyph unicode="&#xd0;" horiz-adv-x="1009" d="M402 233q15 39 32 74.5t33.5 63t32 45t28.5 21.5q16 4 33 4t29.5 -3.5t18 -10t-1.5 -13.5q-20 -23 -49 -70.5t-59 -110.5q23 1 43 1t29 2q8 1 9.5 -2.5t-1.5 -9t-11 -10.5t-18 -6q-25 -5 -65 -5q-25 -54 -44.5 -111.5t-28.5 -113.5q74 19 150.5 58t144.5 89.5 t122.5 108.5t84 115t29.5 108.5t-41 88.5q-35 33 -89.5 45.5t-119 9t-134.5 -21t-136 -45t-124 -63t-99 -74.5q-10 -9 -15 4.5t-2 37.5t17.5 52.5t43.5 49.5q56 40 125 66.5t141.5 39.5t144.5 11t133.5 -19.5t109 -50.5t72.5 -82q24 -50 21.5 -102t-23.5 -103.5t-58 -99.5 t-83 -89q-71 -63 -163.5 -114.5t-194.5 -78.5t-208 -24.5t-203 47.5q-21 10 -35 20t-16.5 16t8 5.5t39.5 -11.5q66 -27 140.5 -27.5t146.5 15.5q-3 45 11.5 110.5t38.5 131.5q-11 0 -21 0.5t-14 0.5q-8 0 -8 4.5t5.5 10.5t14.5 10.5t20 4.5h14z" />
<glyph unicode="&#xd1;" horiz-adv-x="845" d="M292 502q5 2 12 -2q6 45 16.5 93.5t27 86t40.5 56.5t58 6q-26 -103 -48 -207t-30 -210q-1 -21 -2 -49.5t2 -58t11.5 -57.5t24.5 -49t41 -31.5t63 -5.5q42 6 82 46.5t78 99.5t73.5 129.5t69.5 138t66.5 124t64.5 88.5q21 21 47 29t47.5 8.5t34 -4.5t5.5 -11 q-45 -37 -86.5 -104t-83 -145.5t-85.5 -158.5t-94 -143t-109 -99.5t-130 -27.5q-43 5 -75 26.5t-54.5 53t-36.5 71t-21 80.5t-8.5 81t2.5 74v4q-29 -41 -60.5 -87.5t-60 -95t-51 -97.5t-34.5 -95q0 -14 -10.5 -12t-22 15.5t-18 37.5t1.5 56q5 23 19 55t34 68t44 72t50 66.5 t53 53t52 31.5zM574 664q11 16 30.5 32t33.5 23q7 3 16 3t18 -2t16 -5.5t10 -7.5q8 -9 8.5 -19.5t1.5 -10.5t14 4.5t26 27.5q3 5 8 7t9.5 1.5t7.5 -4.5t2 -11q-3 -14 -11 -27.5t-18 -25t-20.5 -19.5t-17.5 -10q-8 -2 -18 -3t-20.5 0t-19.5 4t-14 9q-4 4 -7 9.5t-5 10.5 q-3 6 -4 12q-7 -5 -12.5 -10.5t-12.5 -10.5q-14 -12 -23 -3t2 26z" />
<glyph unicode="&#xd2;" horiz-adv-x="844" d="M577 624q58 28 105 28t81 -21t53.5 -59.5t23 -88.5t-10 -108t-45.5 -118q-33 -60 -80.5 -112t-106 -92t-124.5 -66t-136 -34q-42 -5 -83.5 3.5t-78 28t-66 49t-48.5 68.5q-24 48 -14.5 99t41.5 100t81 93.5t105 80.5t113.5 61.5t106.5 35.5q8 11 27 23t56 29zM600 575 q17 -3 27.5 -7t10 -9.5t-14.5 -11t-45 -9.5q-40 -6 -77.5 -19.5t-72 -31.5t-66.5 -39t-60 -42q-27 -20 -60 -52.5t-63 -70.5t-51.5 -78.5t-25.5 -78.5t15 -69.5t71 -51.5q62 -24 129 -12.5t131.5 47t123.5 90.5t105.5 119t76 131.5t36.5 128.5q5 46 -7 69.5t-35 31t-53.5 1 t-63.5 -21.5zM770 670q-7 2 -22 6t-31.5 8.5t-31 10.5t-21.5 13q-6 7 -5.5 20t5.5 25t13 20.5t17 6.5q8 -2 21 -11.5t27.5 -22t27.5 -25.5l21 -21q8 -9 8 -16t-4 -11t-11 -5t-14 2z" />
<glyph unicode="&#xd3;" horiz-adv-x="844" d="M577 624q58 28 105 28t81 -21t53.5 -59.5t23 -88.5t-10 -108t-45.5 -118q-33 -60 -80.5 -112t-106 -92t-124.5 -66t-136 -34q-42 -5 -83.5 3.5t-78 28t-66 49t-48.5 68.5q-24 48 -14.5 99t41.5 100t81 93.5t105 80.5t113.5 61.5t106.5 35.5q8 11 27 23t56 29zM600 575 q17 -3 27.5 -7t10 -9.5t-14.5 -11t-45 -9.5q-40 -6 -77.5 -19.5t-72 -31.5t-66.5 -39t-60 -42q-27 -20 -60 -52.5t-63 -70.5t-51.5 -78.5t-25.5 -78.5t15 -69.5t71 -51.5q62 -24 129 -12.5t131.5 47t123.5 90.5t105.5 119t76 131.5t36.5 128.5q5 46 -7 69.5t-35 31t-53.5 1 t-63.5 -21.5zM640 718q5 4 16 15t23.5 23t25.5 22t22 12t20 -5t19 -17.5t11 -21.5t-3 -18t-21 -13.5t-33 -12t-35.5 -10t-29.5 -7.5t-17.5 0.5t-7 9t1 12t8.5 11.5z" />
<glyph unicode="&#xd4;" horiz-adv-x="844" d="M577 624q58 28 105 28t81 -21t53.5 -59.5t23 -88.5t-10 -108t-45.5 -118q-33 -60 -80.5 -112t-106 -92t-124.5 -66t-136 -34q-42 -5 -83.5 3.5t-78 28t-66 49t-48.5 68.5q-24 48 -14.5 99t41.5 100t81 93.5t105 80.5t113.5 61.5t106.5 35.5q8 11 27 23t56 29zM600 575 q17 -3 27.5 -7t10 -9.5t-14.5 -11t-45 -9.5q-40 -6 -77.5 -19.5t-72 -31.5t-66.5 -39t-60 -42q-27 -20 -60 -52.5t-63 -70.5t-51.5 -78.5t-25.5 -78.5t15 -69.5t71 -51.5q62 -24 129 -12.5t131.5 47t123.5 90.5t105.5 119t76 131.5t36.5 128.5q5 46 -7 69.5t-35 31t-53.5 1 t-63.5 -21.5zM598 696q1 7 17.5 21t37 28.5t40 25t27.5 10.5q12 0 23 -10t20 -24t13.5 -28.5t3.5 -24.5q0 -5 -5.5 -9t-13 -6t-14.5 -2t-11 3q-5 4 -3.5 10.5t4.5 14.5t5.5 16.5t1.5 17.5q-9 -8 -21.5 -18.5t-25 -20.5t-23.5 -18t-18 -10t-17.5 -1t-20 4.5t-16 8.5t-4.5 12z " />
<glyph unicode="&#xd5;" horiz-adv-x="844" d="M577 624q58 28 105 28t81 -21t53.5 -59.5t23 -88.5t-10 -108t-45.5 -118q-33 -60 -80.5 -112t-106 -92t-124.5 -66t-136 -34q-42 -5 -83.5 3.5t-78 28t-66 49t-48.5 68.5q-24 48 -14.5 99t41.5 100t81 93.5t105 80.5t113.5 61.5t106.5 35.5q8 11 27 23t56 29zM600 575 q17 -3 27.5 -7t10 -9.5t-14.5 -11t-45 -9.5q-40 -6 -77.5 -19.5t-72 -31.5t-66.5 -39t-60 -42q-27 -20 -60 -52.5t-63 -70.5t-51.5 -78.5t-25.5 -78.5t15 -69.5t71 -51.5q62 -24 129 -12.5t131.5 47t123.5 90.5t105.5 119t76 131.5t36.5 128.5q5 46 -7 69.5t-35 31t-53.5 1 t-63.5 -21.5zM618 716q11 17 31 33t34 23q14 6 33.5 1t26.5 -13q7 -9 7.5 -19.5t1.5 -10.5q2 0 14.5 4.5t25.5 27.5q3 5 8 7t10 1.5t8 -4.5t2 -11q-3 -14 -11 -27.5t-18 -25t-20.5 -19.5t-18.5 -10t-18 -3t-20 0t-19 4t-15 9q-4 4 -6.5 9.5t-4.5 10.5q-3 6 -4 12 q-8 -5 -13.5 -10.5t-11.5 -10.5q-7 -6 -13 -6.5t-10 3.5t-4 10.5t5 14.5z" />
<glyph unicode="&#xd6;" horiz-adv-x="844" d="M577 624q58 28 105 28t81 -21t53.5 -59.5t23 -88.5t-10 -108t-45.5 -118q-33 -60 -80.5 -112t-106 -92t-124.5 -66t-136 -34q-42 -5 -83.5 3.5t-78 28t-66 49t-48.5 68.5q-24 48 -14.5 99t41.5 100t81 93.5t105 80.5t113.5 61.5t106.5 35.5q8 11 27 23t56 29zM600 575 q17 -3 27.5 -7t10 -9.5t-14.5 -11t-45 -9.5q-40 -6 -77.5 -19.5t-72 -31.5t-66.5 -39t-60 -42q-27 -20 -60 -52.5t-63 -70.5t-51.5 -78.5t-25.5 -78.5t15 -69.5t71 -51.5q62 -24 129 -12.5t131.5 47t123.5 90.5t105.5 119t76 131.5t36.5 128.5q5 46 -7 69.5t-35 31t-53.5 1 t-63.5 -21.5zM748 770q4 0 13 -4t18 -10t16 -13t7 -12q1 -13 -5 -24.5t-15.5 -20t-19.5 -12.5t-16 -2q-8 1 -21 10t-21 19q-10 -9 -20 -14t-17 -3q-5 1 -13.5 6t-16 11.5t-13 13t-5.5 12.5q0 7 4.5 16.5t12 18t16 15t16.5 7.5q3 0 10 -3t14.5 -7.5t15 -10t11.5 -11.5 q13 16 29 18z" />
<glyph unicode="&#xd7;" horiz-adv-x="319" d="M145 172q-3 9 -13 21q-26 -13 -47.5 -23t-28.5 -15q-6 -5 -8.5 -1.5t-2.5 11t4 16.5t12 16q15 10 42 25q-14 13 -26 25t-17 21q-4 7 3.5 12t19.5 7t24 -1t18 -12q7 -15 21 -30q23 11 41.5 21.5t24.5 17.5q6 6 9.5 4t4.5 -8t-1.5 -15t-9.5 -17q-14 -14 -42 -31 q15 -14 27 -26.5t15 -20.5q2 -7 -7 -11.5t-21.5 -4.5t-25 4t-16.5 15z" />
<glyph unicode="&#xd8;" horiz-adv-x="844" d="M577 624q70 33 123.5 27t86.5 -40q21 20 36 33.5t21 20.5q12 13 22 12.5t15.5 -8t6 -17.5t-7.5 -15q-7 -4 -25.5 -18t-44.5 -36q17 -28 25 -65t5 -79.5t-17 -88.5t-39 -93q-33 -60 -80.5 -112t-106 -92t-124.5 -66t-136 -34q-54 -5 -105.5 9.5t-93.5 47.5 q-21 -20 -28 -28q-8 -9 -14.5 -11t-10.5 1t-3.5 9t7.5 13q2 4 10.5 11t20.5 19q-37 34 -59 78q-24 48 -14.5 99t41.5 100t81 93.5t105 80.5t113.5 61.5t106.5 35.5q8 11 27 23t56 29zM787 564q-42 -35 -97 -80.5t-115 -96.5t-122 -103.5t-118.5 -101.5t-104 -90t-78.5 -69 q8 -5 16.5 -9t19.5 -9q62 -24 129 -12.5t131.5 47t123.5 90.5t105.5 119t76 131.5t36.5 128.5q3 34 -3 55zM134 37q32 28 81 71t107 93.5t120.5 105t122.5 107t113 99.5t92 82q-21 22 -59.5 17.5t-79.5 -23.5l-31 -14q17 -3 27.5 -7t10 -9.5t-14.5 -11t-45 -9.5 q-40 -6 -77.5 -19.5t-72 -31.5t-66.5 -39t-60 -42q-24 -18 -53 -46t-56.5 -61t-50 -69t-33.5 -70.5t-6.5 -66.5t31.5 -56z" />
<glyph unicode="&#xd9;" horiz-adv-x="788" d="M118 84q49 -4 114 21.5t137 69t147 98.5t143 110t124.5 104.5t92.5 80.5q17 15 44.5 17.5t52 -1.5t40 -11.5t9.5 -13.5q-22 -19 -62 -50.5t-85 -71t-90 -84.5t-76.5 -91.5t-44 -91.5t6.5 -85q5 -9 -1 -14t-18 3q-23 15 -30.5 43t-4.5 59.5t12.5 62t20.5 50.5 q-44 -26 -98 -59t-111 -65.5t-114.5 -60t-108.5 -42t-92.5 -12.5t-66.5 30q-23 25 -28 58t3 69.5t26.5 74.5t41.5 73t48 65.5t47 52.5q16 16 42 21.5t49 3.5t36.5 -10t4.5 -18q-4 -5 -20.5 -23.5t-39 -45.5t-49 -60.5t-51 -68t-44.5 -67.5t-29 -59.5t-5 -43t27 -18.5z M628 548q-7 2 -22 6t-31.5 9t-31.5 11t-22 13q-6 7 -5.5 20t5.5 25t13 20.5t17 6.5t22 -11.5t27 -22t27 -25.5t21 -22t8.5 -16t-3.5 -11t-11 -5t-14 2z" />
<glyph unicode="&#xda;" horiz-adv-x="788" d="M118 84q49 -4 114 21.5t137 69t147 98.5t143 110t124.5 104.5t92.5 80.5q17 15 44.5 17.5t52 -1.5t40 -11.5t9.5 -13.5q-22 -19 -62 -50.5t-85 -71t-90 -84.5t-76.5 -91.5t-44 -91.5t6.5 -85q5 -9 -1 -14t-18 3q-23 15 -30.5 43t-4.5 59.5t12.5 62t20.5 50.5 q-44 -26 -98 -59t-111 -65.5t-114.5 -60t-108.5 -42t-92.5 -12.5t-66.5 30q-23 25 -28 58t3 69.5t26.5 74.5t41.5 73t48 65.5t47 52.5q16 16 42 21.5t49 3.5t36.5 -10t4.5 -18q-4 -5 -20.5 -23.5t-39 -45.5t-49 -60.5t-51 -68t-44.5 -67.5t-29 -59.5t-5 -43t27 -18.5z M548 577q6 4 16.5 15t23.5 23t26 22t22 12t20 -4.5t18.5 -17t11 -21.5t-2.5 -18t-21 -13.5t-33 -12t-35.5 -10t-29.5 -7.5t-17.5 0t-7 8.5t1 12t7.5 11.5z" />
<glyph unicode="&#xdb;" horiz-adv-x="788" d="M118 84q49 -4 114 21.5t137 69t147 98.5t143 110t124.5 104.5t92.5 80.5q17 15 44.5 17.5t52 -1.5t40 -11.5t9.5 -13.5q-22 -19 -62 -50.5t-85 -71t-90 -84.5t-76.5 -91.5t-44 -91.5t6.5 -85q5 -9 -1 -14t-18 3q-23 15 -30.5 43t-4.5 59.5t12.5 62t20.5 50.5 q-44 -26 -98 -59t-111 -65.5t-114.5 -60t-108.5 -42t-92.5 -12.5t-66.5 30q-23 25 -28 58t3 69.5t26.5 74.5t41.5 73t48 65.5t47 52.5q16 16 42 21.5t49 3.5t36.5 -10t4.5 -18q-4 -5 -20.5 -23.5t-39 -45.5t-49 -60.5t-51 -68t-44.5 -67.5t-29 -59.5t-5 -43t27 -18.5z M524 587q1 7 17.5 21t37.5 28.5t40.5 25t27.5 10.5q12 0 23 -10t19.5 -24t13.5 -29t4 -25q0 -5 -5.5 -8.5t-13 -5.5t-15 -2t-11.5 3q-5 4 -3.5 10.5t4.5 14.5t6 16.5t2 17.5q-9 -8 -21.5 -18.5t-25 -20.5t-23.5 -18t-18 -10t-17.5 -1t-20 4.5t-16 8.5t-5.5 12z" />
<glyph unicode="&#xdc;" horiz-adv-x="788" d="M118 84q49 -4 114 21.5t137 69t147 98.5t143 110t124.5 104.5t92.5 80.5q17 15 44.5 17.5t52 -1.5t40 -11.5t9.5 -13.5q-22 -19 -62 -50.5t-85 -71t-90 -84.5t-76.5 -91.5t-44 -91.5t6.5 -85q5 -9 -1 -14t-18 3q-23 15 -30.5 43t-4.5 59.5t12.5 62t20.5 50.5 q-44 -26 -98 -59t-111 -65.5t-114.5 -60t-108.5 -42t-92.5 -12.5t-66.5 30q-23 25 -28 58t3 69.5t26.5 74.5t41.5 73t48 65.5t47 52.5q16 16 42 21.5t49 3.5t36.5 -10t4.5 -18q-4 -5 -20.5 -23.5t-39 -45.5t-49 -60.5t-51 -68t-44.5 -67.5t-29 -59.5t-5 -43t27 -18.5z M630 634q4 0 13 -4.5t18 -10.5t16 -13t7 -12q2 -13 -4.5 -24.5t-15.5 -20t-19 -12.5t-16 -2q-8 1 -21.5 10t-20.5 19q-10 -9 -20.5 -14t-16.5 -3q-6 1 -14 6t-15.5 11.5t-13 13t-5.5 12.5q0 7 4.5 16.5t11.5 18.5t16 15.5t17 6.5q3 0 9.5 -3t14 -7.5t15 -10t11.5 -10.5 q15 15 29 18z" />
<glyph unicode="&#xdd;" horiz-adv-x="502" d="M295 228q53 60 104.5 115.5t105 107t112 100t125.5 93.5q18 12 37 10.5t33 -9.5t21 -18t1 -14q-35 -23 -73 -52.5t-74.5 -61t-70 -63.5t-60.5 -59q11 -7 15 -23.5t-7 -28.5q-32 -33 -74 -53.5t-81 -43.5q-84 -78 -153 -160.5t-128 -163.5q-3 -4 -14 -2t-22.5 8t-20.5 16 t-7 22q1 13 20.5 40.5t47.5 61.5t59 69.5t56 64.5q-30 -11 -61.5 -12.5t-58.5 8.5t-47 33t-28 61q-10 44 -6.5 93t16.5 96t33.5 88.5t46 70.5t53.5 42.5t55 5.5q2 -1 11 -7t18 -14t14 -15t1 -9q-27 -12 -56 -43.5t-54 -72.5t-43.5 -87.5t-26 -88.5t-1.5 -75.5t31 -49.5 q16 -10 35 -10t39.5 5t40 12.5t36.5 12.5zM434 660q6 4 16.5 15t23.5 23t26 22t22 12t20 -4.5t18.5 -17t11 -21.5t-2.5 -18t-21 -13.5t-33 -12t-35.5 -10t-29.5 -7.5t-17.5 0t-7 8.5t1 12t7.5 11.5z" />
<glyph unicode="&#xde;" horiz-adv-x="746" d="M331 536q27 5 52.5 9t48.5 7q26 29 45.5 50t28.5 30q15 15 36 20t39 4t29 -5.5t7 -8.5q-12 -13 -30.5 -34.5t-41.5 -49.5q54 0 94.5 -8t67.5 -22q47 -26 57 -68t-10.5 -88t-69 -89.5t-118.5 -73.5q-79 -35 -157.5 -45.5t-166.5 -5.5q-30 -47 -50 -86.5t-25 -65.5 q-1 -7 -10.5 -2t-21 15.5t-21 22t-11.5 17.5q-2 19 11 50.5t36 70t53.5 82.5t64.5 88t68.5 86.5t65.5 79.5q-60 -16 -119.5 -41t-108 -54t-82 -61t-40.5 -62q-1 -3 -10 -1.5t-20.5 5.5t-22.5 10t-15 12q-17 23 -10 45.5t31.5 43.5t62.5 40t82.5 35t91.5 28t89 20zM529 539 q-30 -36 -64 -78.5t-69.5 -88.5t-69.5 -92.5t-63 -89.5q51 6 109 23t120 46q39 18 79.5 52t69 71.5t38.5 72.5t-14 57q-21 18 -56 24.5t-80 2.5z" />
<glyph unicode="&#xdf;" horiz-adv-x="312" d="M116 222q-14 6 -14 13.5t7.5 16t21 16.5t26.5 14q16 11 42.5 39t54.5 62.5t55 71.5t45.5 67.5t24.5 50.5t-8 20q-10 0 -30 -20t-46.5 -53t-58 -75t-62.5 -86t-60.5 -86.5t-53.5 -75.5l-80 -113q-6 -8 -18.5 -10.5t-24 0t-18 11t0.5 23.5q7 18 24.5 49t38.5 66t43 68.5 t39 56.5q29 40 64.5 90t73.5 93.5t76.5 73t73.5 29.5q29 0 45.5 -16.5t19 -44.5t-8 -64t-37 -75.5t-68 -79t-99.5 -73.5q11 -3 19.5 -7.5t10.5 -10.5q2 -5 -5.5 -16.5t-19 -25.5t-25 -29.5t-24.5 -28.5t-17.5 -22t-3.5 -11t17 5t33 19.5t41 28.5t42 30.5t35 26t20 16.5 q15 15 22 7.5t-2 -21.5q-3 -4 -15.5 -17.5t-30.5 -30.5t-38.5 -36t-39.5 -35.5t-34.5 -27.5t-22.5 -13q-15 -3 -32.5 -0.5t-32.5 9.5t-25.5 18t-11.5 24q-1 6 7 20.5t18 29.5q11 18 26 39z" />
<glyph unicode="&#xe0;" horiz-adv-x="287" d="M293 247q14 13 22.5 6.5t-5.5 -23.5q-8 -9 -22 -26.5t-29 -35.5t-30 -32t-25 -16q-13 -3 -36.5 4t-40.5 21q-13 -9 -25 -17.5t-24 -12.5q-11 -2 -27 1t-31.5 11.5t-27.5 20.5t-16 28q-4 17 8.5 40.5t30.5 44.5t37.5 36.5t30.5 16.5q7 1 17.5 -1t21 -7t19 -12t11.5 -16 q14 12 24 11q8 -2 17 -5t16.5 -7t12.5 -10t4 -13q0 -8 -8 -21.5t-17 -27.5t-15 -25t-2 -14q3 -2 13.5 4.5t25.5 18t33.5 26.5t36.5 32zM42 151q11 -6 27.5 6.5t31.5 31.5t25.5 39t10.5 30q-4 9 -14 5t-22 -15t-24.5 -27t-21.5 -30.5t-13.5 -26t0.5 -13.5zM222 358 q-7 2 -22 6t-31.5 8.5t-31.5 10.5t-22 13q-6 7 -5.5 20t5.5 25t13 20.5t17 6.5t22 -11.5t27 -22t27 -25.5l21 -21q8 -9 8.5 -16t-3.5 -11t-11 -5t-14 2z" />
<glyph unicode="&#xe1;" horiz-adv-x="287" d="M293 247q14 13 22.5 6.5t-5.5 -23.5q-8 -9 -22 -26.5t-29 -35.5t-30 -32t-25 -16q-13 -3 -36.5 4t-40.5 21q-13 -9 -25 -17.5t-24 -12.5q-11 -2 -27 1t-31.5 11.5t-27.5 20.5t-16 28q-4 17 8.5 40.5t30.5 44.5t37.5 36.5t30.5 16.5q7 1 17.5 -1t21 -7t19 -12t11.5 -16 q14 12 24 11q8 -2 17 -5t16.5 -7t12.5 -10t4 -13q0 -8 -8 -21.5t-17 -27.5t-15 -25t-2 -14q3 -2 13.5 4.5t25.5 18t33.5 26.5t36.5 32zM42 151q11 -6 27.5 6.5t31.5 31.5t25.5 39t10.5 30q-4 9 -14 5t-22 -15t-24.5 -27t-21.5 -30.5t-13.5 -26t0.5 -13.5zM130 395q5 4 16 15 t23.5 23t25.5 22t22 12t20 -4.5t19 -17t11 -21.5t-3 -18t-21 -13.5t-33 -12.5t-35.5 -10.5t-29.5 -7.5t-17.5 0.5t-7 9t1 12t8.5 11.5z" />
<glyph unicode="&#xe2;" horiz-adv-x="287" d="M293 247q14 13 22.5 6.5t-5.5 -23.5q-8 -9 -22 -26.5t-29 -35.5t-30 -32t-25 -16q-13 -3 -36.5 4t-40.5 21q-13 -9 -25 -17.5t-24 -12.5q-11 -2 -27 1t-31.5 11.5t-27.5 20.5t-16 28q-4 17 8.5 40.5t30.5 44.5t37.5 36.5t30.5 16.5q7 1 17.5 -1t21 -7t19 -12t11.5 -16 q14 12 24 11q8 -2 17 -5t16.5 -7t12.5 -10t4 -13q0 -8 -8 -21.5t-17 -27.5t-15 -25t-2 -14q3 -2 13.5 4.5t25.5 18t33.5 26.5t36.5 32zM42 151q11 -6 27.5 6.5t31.5 31.5t25.5 39t10.5 30q-4 9 -14 5t-22 -15t-24.5 -27t-21.5 -30.5t-13.5 -26t0.5 -13.5zM90 390 q1 7 17.5 21t37.5 28.5t40 25t27 10.5q12 0 23.5 -10t20 -24t13 -28.5t3.5 -24.5q0 -5 -5.5 -9t-12.5 -6t-14.5 -2t-11.5 3q-5 4 -3.5 10.5t4.5 14.5t5.5 16.5t1.5 17.5q-9 -8 -21.5 -18.5t-24.5 -20.5t-23 -18t-18 -10t-17.5 -1t-20.5 4.5t-16.5 8.5t-4.5 12z" />
<glyph unicode="&#xe3;" horiz-adv-x="287" d="M293 247q14 13 22.5 6.5t-5.5 -23.5q-8 -9 -22 -26.5t-29 -35.5t-30 -32t-25 -16q-13 -3 -36.5 4t-40.5 21q-13 -9 -25 -17.5t-24 -12.5q-11 -2 -27 1t-31.5 11.5t-27.5 20.5t-16 28q-4 17 8.5 40.5t30.5 44.5t37.5 36.5t30.5 16.5q7 1 17.5 -1t21 -7t19 -12t11.5 -16 q14 12 24 11q8 -2 17 -5t16.5 -7t12.5 -10t4 -13q0 -8 -8 -21.5t-17 -27.5t-15 -25t-2 -14q3 -2 13.5 4.5t25.5 18t33.5 26.5t36.5 32zM42 151q11 -6 27.5 6.5t31.5 31.5t25.5 39t10.5 30q-4 9 -14 5t-22 -15t-24.5 -27t-21.5 -30.5t-13.5 -26t0.5 -13.5zM91 409 q11 17 31 33t34 22q7 3 16 3.5t18 -2t16 -6t10 -7.5q8 -9 8 -19.5t2 -10.5q1 0 13.5 5t25.5 28q3 5 8 7t10 1.5t8 -4.5t2 -11q-3 -14 -11 -27.5t-18 -25t-20.5 -19.5t-17.5 -10q-16 -5 -38.5 -3.5t-33.5 13.5q-4 4 -7 9.5t-5 10.5q-3 6 -4 12q-8 -5 -13.5 -10.5l-11.5 -11.5 q-7 -6 -13 -6t-10 4t-4 10.5t5 14.5z" />
<glyph unicode="&#xe4;" horiz-adv-x="287" d="M293 247q14 13 22.5 6.5t-5.5 -23.5q-8 -9 -22 -26.5t-29 -35.5t-30 -32t-25 -16q-13 -3 -36.5 4t-40.5 21q-13 -9 -25 -17.5t-24 -12.5q-11 -2 -27 1t-31.5 11.5t-27.5 20.5t-16 28q-4 17 8.5 40.5t30.5 44.5t37.5 36.5t30.5 16.5q7 1 17.5 -1t21 -7t19 -12t11.5 -16 q14 12 24 11q8 -2 17 -5t16.5 -7t12.5 -10t4 -13q0 -8 -8 -21.5t-17 -27.5t-15 -25t-2 -14q3 -2 13.5 4.5t25.5 18t33.5 26.5t36.5 32zM224 445q4 0 13 -4t18 -10t16 -13t7 -12q2 -13 -4 -24.5t-15.5 -20t-19.5 -12.5t-16 -2q-8 1 -21 9.5t-21 19.5q-10 -9 -20.5 -14 t-16.5 -3q-5 1 -13.5 5.5t-16 11t-13 13.5t-5.5 13q0 7 4.5 16.5t12 18t16 15t16.5 6.5q3 0 10 -2.5t14.5 -7t15 -10t11.5 -11.5q13 16 28 18zM42 151q11 -6 27.5 6.5t31.5 31.5t25.5 39t10.5 30q-4 9 -14 5t-22 -15t-24.5 -27t-21.5 -30.5t-13.5 -26t0.5 -13.5z" />
<glyph unicode="&#xe5;" horiz-adv-x="287" d="M293 247q14 13 22.5 6.5t-5.5 -23.5q-8 -9 -22 -26.5t-29 -35.5t-30 -32t-25 -16q-13 -3 -36.5 4t-40.5 21q-13 -9 -25 -17.5t-24 -12.5q-11 -2 -27 1t-31.5 11.5t-27.5 20.5t-16 28q-4 17 8.5 40.5t30.5 44.5t37.5 36.5t30.5 16.5q7 1 17.5 -1t21 -7t19 -12t11.5 -16 q14 12 24 11q8 -2 17 -5t16.5 -7t12.5 -10t4 -13q0 -8 -8 -21.5t-17 -27.5t-15 -25t-2 -14q3 -2 13.5 4.5t25.5 18t33.5 26.5t36.5 32zM42 151q11 -6 27.5 6.5t31.5 31.5t25.5 39t10.5 30q-4 9 -14 5t-22 -15t-24.5 -27t-21.5 -30.5t-13.5 -26t0.5 -13.5zM191 480q6 0 19 -6 t26.5 -15t23.5 -19.5t10 -18.5q2 -18 -7 -35t-23 -29t-28.5 -18t-23.5 -4q-8 2 -19.5 9t-22.5 16t-19 18.5t-8 18.5t7 23t17.5 26.5t23 22t24.5 11.5zM168 378q4 -5 13.5 1t18.5 16.5t15 21t5 13.5q-4 6 -13.5 -0.5t-18.5 -17t-15.5 -21t-4.5 -13.5z" />
<glyph unicode="&#xe6;" horiz-adv-x="374" d="M374 244q20 14 22 9t-7 -19q-9 -15 -25.5 -35t-37 -38t-42 -32t-40.5 -17q-9 -2 -21.5 1.5t-26 11t-27.5 18.5t-24 24q-7 -6 -16.5 -14.5t-19 -16t-18 -13.5t-13.5 -8q-11 -2 -27 1t-31.5 11.5t-27.5 20.5t-16 28q-4 17 8.5 40.5t30.5 44.5t37.5 36.5t30.5 16.5 q7 1 17.5 -1.5t21 -8t19 -12.5t11.5 -14q0 -1 3 -4q17 18 37.5 29t34.5 11q9 0 20.5 -5t21 -13t15 -18.5t4.5 -21.5q-2 -11 -15.5 -25.5t-29.5 -28.5q-18 -16 -41 -33q10 -3 28.5 0.5t41 13.5t49 25.5t53.5 35.5zM42 151q11 -6 27.5 6.5t31.5 31.5t25.5 39t10.5 30 q-4 9 -14 5t-22 -15t-24.5 -27t-21.5 -30.5t-13.5 -26t0.5 -13.5zM257 263q-4 3 -18.5 -4.5t-28.5 -19.5t-24 -26.5t-5 -24.5q6 3 19.5 14t27 24t23 23.5t6.5 13.5z" />
<glyph unicode="&#xe7;" horiz-adv-x="246" d="M181 248q0 -20 -15.5 -35.5t-32.5 -26.5q-8 -5 -17.5 -5t-18 3t-13 8.5t-1.5 12.5q3 6 12.5 14.5t18.5 17.5t14 16.5t0 12.5q-6 6 -21.5 -9.5t-30 -37.5t-22.5 -44t2 -29q10 -8 34 -1t51.5 22t54.5 34t43 35q9 10 16.5 13.5t11.5 1t2.5 -9.5t-10.5 -19q-11 -13 -29 -31.5 t-38.5 -36t-41.5 -31t-37 -17.5q-10 -3 -24.5 -2.5t-29.5 4.5q-7 -6 -14 -11t-8 -12q0 -4 11.5 -8.5t23 -12t17.5 -20t-6 -32.5t-33 -22t-42 5.5t-37 20t-19 21.5t-0.5 14.5t7 8t9.5 0.5t8 -8q5 -13 19.5 -17.5t20.5 7.5q3 6 0.5 9.5t-7 6.5t-9.5 6t-8 8q-6 8 7.5 20.5 t28.5 26.5q-20 8 -34.5 20.5t-17.5 30.5q-4 15 3.5 36t21 41t30 36.5t28.5 23.5t32.5 2.5t40.5 -14t34.5 -23t14.5 -24.5z" />
<glyph unicode="&#xe8;" horiz-adv-x="241" d="M245 244q19 14 21 9t-7 -19q-9 -15 -25.5 -35t-36.5 -38t-42 -32t-41 -17q-13 -2 -34 6.5t-40.5 24.5t-32.5 37t-9 43q3 18 15 34.5t27 29t30.5 20t26.5 7.5q9 0 20.5 -5t21 -13t15 -18.5t4.5 -21.5q-2 -11 -15 -25.5t-29 -28.5q-18 -16 -42 -33q22 -6 70.5 14t102.5 61z M127 263q-4 3 -18.5 -4.5t-28.5 -19.5t-23.5 -26.5t-4.5 -24.5q6 3 19.5 14t27 24t22.5 23.5t6 13.5zM137 358q-7 2 -22 6t-31.5 8.5t-31.5 10.5t-22 13q-6 7 -5.5 20t5.5 25t13 20.5t17 6.5t22 -11.5t27 -22t27 -25.5l21 -21q8 -9 8.5 -16t-3.5 -11t-11 -5t-14 2z" />
<glyph unicode="&#xe9;" horiz-adv-x="241" d="M245 244q19 14 21 9t-7 -19q-9 -15 -25.5 -35t-36.5 -38t-42 -32t-41 -17q-13 -2 -34 6.5t-40.5 24.5t-32.5 37t-9 43q3 18 15 34.5t27 29t30.5 20t26.5 7.5q9 0 20.5 -5t21 -13t15 -18.5t4.5 -21.5q-2 -11 -15 -25.5t-29 -28.5q-18 -16 -42 -33q22 -6 70.5 14t102.5 61z M127 263q-4 3 -18.5 -4.5t-28.5 -19.5t-23.5 -26.5t-4.5 -24.5q6 3 19.5 14t27 24t22.5 23.5t6 13.5zM53 395q5 4 16 15t23.5 23t25.5 22t22 12q10 2 20.5 -4.5t18.5 -17t11 -21.5t-3 -18t-20.5 -13.5t-32.5 -12.5t-36 -10.5l-30 -7.5t-17.5 0.5t-7 9t1 12t8.5 11.5z" />
<glyph unicode="&#xea;" horiz-adv-x="241" d="M245 244q19 14 21 9t-7 -19q-9 -15 -25.5 -35t-36.5 -38t-42 -32t-41 -17q-13 -2 -34 6.5t-40.5 24.5t-32.5 37t-9 43q3 18 15 34.5t27 29t30.5 20t26.5 7.5q9 0 20.5 -5t21 -13t15 -18.5t4.5 -21.5q-2 -11 -15 -25.5t-29 -28.5q-18 -16 -42 -33q22 -6 70.5 14t102.5 61z M127 263q-4 3 -18.5 -4.5t-28.5 -19.5t-23.5 -26.5t-4.5 -24.5q6 3 19.5 14t27 24t22.5 23.5t6 13.5zM30 390q1 7 17.5 21t37.5 28.5t40 25t27 10.5q12 0 23.5 -10t20 -24t13 -28.5t3.5 -24.5q0 -5 -5.5 -9t-12.5 -6t-14.5 -2t-11.5 3q-5 4 -3.5 10.5t4.5 14.5t5.5 16.5 t1.5 17.5q-9 -8 -21.5 -18.5t-24.5 -20.5t-23 -18t-18 -10t-17.5 -1t-20.5 4.5t-16.5 8.5t-4.5 12z" />
<glyph unicode="&#xeb;" horiz-adv-x="241" d="M245 244q19 14 21 9t-7 -19q-9 -15 -25.5 -35t-36.5 -38t-42 -32t-41 -17q-13 -2 -34 6.5t-40.5 24.5t-32.5 37t-9 43q3 18 15 34.5t27 29t30.5 20t26.5 7.5q9 0 20.5 -5t21 -13t15 -18.5t4.5 -21.5q-2 -11 -15 -25.5t-29 -28.5q-18 -16 -42 -33q22 -6 70.5 14t102.5 61z M156 450q4 0 13 -4t18 -10t16 -13t7 -13q2 -13 -4.5 -24t-15.5 -19.5t-19 -12.5t-16 -2q-8 1 -21.5 9.5t-20.5 18.5q-10 -9 -20.5 -13.5t-16.5 -2.5q-6 1 -14 5.5t-15.5 11t-13 13.5t-5.5 13q0 7 4.5 16.5t11.5 18t16 15t17 6.5q3 0 9.5 -3t14 -7.5t15 -10t11.5 -10.5 q15 17 29 18zM127 263q-4 3 -18.5 -4.5t-28.5 -19.5t-23.5 -26.5t-4.5 -24.5q6 3 19.5 14t27 24t22.5 23.5t6 13.5z" />
<glyph unicode="&#xec;" horiz-adv-x="167" d="M168 245q20 18 30 11t-8 -29q-12 -15 -29 -31.5t-34.5 -31t-32.5 -25t-23 -12.5q-11 -1 -25.5 4t-28 15t-22 24.5t-6.5 32.5q2 17 9.5 37.5t17.5 37.5t20 28t18 10q7 -2 15 -5.5t14.5 -8t10.5 -10.5t3 -14t-9 -23.5t-16 -31.5t-14 -29t-2 -16q3 -2 14.5 2.5t27 13.5 t34 22t36.5 29zM144 358q-7 2 -22 6t-31.5 8.5t-31.5 10.5t-22 13q-6 7 -5.5 20t5.5 25t13 20.5t17 6.5t22 -11.5t27 -22t27 -25.5l21 -21q8 -9 8.5 -16t-3.5 -11t-11 -5t-14 2z" />
<glyph unicode="&#xed;" horiz-adv-x="167" d="M168 245q20 18 30 11t-8 -29q-12 -15 -29 -31.5t-34.5 -31t-32.5 -25t-23 -12.5q-11 -1 -25.5 4t-28 15t-22 24.5t-6.5 32.5q2 17 9.5 37.5t17.5 37.5t20 28t18 10q7 -2 15 -5.5t14.5 -8t10.5 -10.5t3 -14t-9 -23.5t-16 -31.5t-14 -29t-2 -16q3 -2 14.5 2.5t27 13.5 t34 22t36.5 29zM53 395q5 4 16 15t23.5 23t25.5 22t22 12q10 2 20.5 -4.5t18.5 -17t11 -21.5t-3 -18t-20.5 -13.5t-32.5 -12.5t-36 -10.5l-30 -7.5t-17.5 0.5t-7 9t1 12t8.5 11.5z" />
<glyph unicode="&#xee;" horiz-adv-x="167" d="M168 245q20 18 30 11t-8 -29q-12 -15 -29 -31.5t-34.5 -31t-32.5 -25t-23 -12.5q-11 -1 -25.5 4t-28 15t-22 24.5t-6.5 32.5q2 17 9.5 37.5t17.5 37.5t20 28t18 10q7 -2 15 -5.5t14.5 -8t10.5 -10.5t3 -14t-9 -23.5t-16 -31.5t-14 -29t-2 -16q3 -2 14.5 2.5t27 13.5 t34 22t36.5 29zM14 390q1 7 17.5 21t37.5 28.5t40.5 25t27.5 10.5q12 0 23 -10t19.5 -24t13.5 -28.5t4 -24.5q0 -5 -5.5 -9t-13 -6t-15 -2t-11.5 3q-5 4 -3.5 10.5t4.5 14.5t6 16.5t2 17.5q-9 -8 -21.5 -18.5t-25 -20.5t-23.5 -18t-18 -10t-17.5 -1t-20 4.5t-16 8.5t-5.5 12 z" />
<glyph unicode="&#xef;" horiz-adv-x="167" d="M168 245q20 18 30 11t-8 -29q-12 -15 -29 -31.5t-34.5 -31t-32.5 -25t-23 -12.5q-11 -1 -25.5 4t-28 15t-22 24.5t-6.5 32.5q2 17 9.5 37.5t17.5 37.5t20 28t18 10q7 -2 15 -5.5t14.5 -8t10.5 -10.5t3 -14t-9 -23.5t-16 -31.5t-14 -29t-2 -16q3 -2 14.5 2.5t27 13.5 t34 22t36.5 29zM140 450q4 0 13 -4t18 -10t16 -13t7 -13q2 -13 -4 -24t-15.5 -19.5t-19.5 -12.5t-16 -2q-8 1 -21 9.5t-21 18.5q-10 -9 -20.5 -13.5t-16.5 -2.5q-5 1 -13.5 5.5t-16 11t-13 13.5t-5.5 13q0 7 4.5 16.5t12 18t16 15t16.5 6.5q3 0 10 -3t14.5 -7.5t15 -10 t11.5 -10.5q13 16 28 18z" />
<glyph unicode="&#xf0;" d="M101 388q5 3 13 9t18 12q-13 17 -25 28.5t-19 14.5q-4 1 -4 5.5t4.5 8t14.5 4t28 -5.5q22 -9 39 -28q15 11 26.5 19.5t19.5 14.5q6 5 9.5 3t4 -8t-3 -14.5t-11.5 -16.5q-9 -9 -27 -22q17 -28 26.5 -64.5t9.5 -76.5t-10.5 -79.5t-33.5 -73.5q-17 -23 -47 -21t-60 18.5 t-53 42t-26 48.5q-2 17 5.5 36t20.5 34t28.5 24t29.5 8q10 -1 19.5 -3t18.5 -8t17.5 -18.5t17.5 -34.5q19 36 15 72t-18 66l-56 -36q-7 -5 -9.5 -1t-1.5 11.5t6 16.5t14 15zM131 217q-9 23 -26 25t-39 -25q-12 -15 -10 -25.5t13 -12.5t28 6.5t34 31.5z" />
<glyph unicode="&#xf1;" horiz-adv-x="317" d="M28 289q6 6 14.5 4.5t16 -7t13.5 -14t7 -15.5q2 -7 -0.5 -17.5t-7 -21t-8.5 -19t-5 -12.5q5 3 23 20.5t38 37.5t37.5 36t22.5 18q4 2 14 0.5t20 -6t18 -11t10 -14.5t-7.5 -26t-20.5 -37.5t-19.5 -35t-3.5 -18.5t22 8t37.5 27t38.5 32.5t26 23.5t13.5 7.5t8.5 -3.5 t2.5 -10t-4.5 -13q-5 -7 -21 -24.5t-35.5 -37t-37.5 -35.5t-28 -19q-15 -6 -33.5 -3.5t-35.5 9t-28.5 17t-12.5 21.5q-1 4 3.5 16t10.5 24t11.5 22t5.5 11l-14.5 -15.5t-33 -33.5t-37 -33t-26.5 -15q-13 0 -27 8.5t-17 25.5q-1 7 2.5 24.5t10 37t16 38t21.5 28.5zM76 409 q11 17 30.5 33t33.5 22q7 3 16 3.5t18 -2t16 -6t10 -7.5q8 -9 8.5 -19.5t1.5 -10.5t14 5t26 28q3 5 8 7t9.5 1.5t7.5 -4.5t2 -11q-3 -14 -11 -27.5t-18 -25t-20.5 -19.5t-17.5 -10q-8 -2 -18 -3t-20.5 0t-19.5 4t-14 9q-4 4 -7 9.5t-5 10.5q-3 6 -4 12q-7 -5 -12.5 -10.5 t-12.5 -11.5q-14 -11 -23 -2t2 25z" />
<glyph unicode="&#xf2;" d="M94 316q14 0 25.5 -7t13.5 -19q26 -6 37 -25t9 -43q25 -3 48.5 8t36.5 27q8 9 14.5 12t10.5 1t4 -7.5t-4 -12.5q-16 -27 -46.5 -49t-80.5 -28q-13 -20 -32.5 -36t-46.5 -24q-12 -4 -29.5 0t-34 15t-27.5 28t-8 38q2 20 11.5 41.5t24 39.5t33.5 29.5t41 11.5zM54 151 q5 -8 21 0t31 25q-11 8 -19 21.5t-11 31.5q-17 -23 -24 -45.5t2 -32.5zM166 358q-7 2 -22 6t-31.5 8.5t-31.5 10.5t-22 13q-6 7 -5.5 20t5.5 25t13 20.5t17 6.5t22 -11.5t27 -22t27 -25.5l21 -21q8 -9 8.5 -16t-3.5 -11t-11 -5t-14 2z" />
<glyph unicode="&#xf3;" d="M94 316q14 0 25.5 -7t13.5 -19q26 -6 37 -25t9 -43q25 -3 48.5 8t36.5 27q8 9 14.5 12t10.5 1t4 -7.5t-4 -12.5q-16 -27 -46.5 -49t-80.5 -28q-13 -20 -32.5 -36t-46.5 -24q-12 -4 -29.5 0t-34 15t-27.5 28t-8 38q2 20 11.5 41.5t24 39.5t33.5 29.5t41 11.5zM54 151 q5 -8 21 0t31 25q-11 8 -19 21.5t-11 31.5q-17 -23 -24 -45.5t2 -32.5zM58 395q5 4 16 15t23.5 23t25.5 22t22 12t20 -4.5t19 -17t11 -21.5t-3 -18t-21 -13.5t-33 -12.5t-35.5 -10.5t-29.5 -7.5t-17.5 0.5t-7 9t1 12t8.5 11.5z" />
<glyph unicode="&#xf4;" d="M94 316q14 0 25.5 -7t13.5 -19q26 -6 37 -25t9 -43q25 -3 48.5 8t36.5 27q8 9 14.5 12t10.5 1t4 -7.5t-4 -12.5q-16 -27 -46.5 -49t-80.5 -28q-13 -20 -32.5 -36t-46.5 -24q-12 -4 -29.5 0t-34 15t-27.5 28t-8 38q2 20 11.5 41.5t24 39.5t33.5 29.5t41 11.5zM54 151 q5 -8 21 0t31 25q-11 8 -19 21.5t-11 31.5q-17 -23 -24 -45.5t2 -32.5zM34 390q1 7 17.5 21t37 28.5t40 25t27.5 10.5q12 0 23 -10t20 -24t13.5 -28.5t3.5 -24.5q0 -5 -5.5 -9t-13 -6t-14.5 -2t-11 3q-5 4 -3.5 10.5t4.5 14.5t5.5 16.5t1.5 17.5q-9 -8 -21.5 -18.5 t-25 -20.5t-23.5 -18t-18 -10t-17.5 -1t-20 4.5t-16 8.5t-4.5 12z" />
<glyph unicode="&#xf5;" d="M94 316q14 0 25.5 -7t13.5 -19q26 -6 37 -25t9 -43q25 -3 48.5 8t36.5 27q8 9 14.5 12t10.5 1t4 -7.5t-4 -12.5q-16 -27 -46.5 -49t-80.5 -28q-13 -20 -32.5 -36t-46.5 -24q-12 -4 -29.5 0t-34 15t-27.5 28t-8 38q2 20 11.5 41.5t24 39.5t33.5 29.5t41 11.5zM54 151 q5 -8 21 0t31 25q-11 8 -19 21.5t-11 31.5q-17 -23 -24 -45.5t2 -32.5zM30 409q11 17 31 33t34 22q14 7 33.5 1.5t26.5 -13.5q7 -9 7.5 -19.5t1.5 -10.5q2 0 14.5 5t25.5 28q3 5 8 7t10 1.5t8 -4.5t2 -11q-3 -14 -11 -27.5t-18 -25t-20.5 -19.5t-18.5 -10t-18 -3t-20 0 t-19 4t-15 9q-4 4 -6.5 9.5t-4.5 10.5q-3 6 -4 12q-8 -5 -13.5 -10.5l-11.5 -11.5q-7 -6 -13 -6t-10 4t-4 10.5t5 14.5z" />
<glyph unicode="&#xf6;" d="M94 316q14 0 25.5 -7t13.5 -19q26 -6 37 -25t9 -43q25 -3 48.5 8t36.5 27q8 9 14.5 12t10.5 1t4 -7.5t-4 -12.5q-16 -27 -46.5 -49t-80.5 -28q-13 -20 -32.5 -36t-46.5 -24q-12 -4 -29.5 0t-34 15t-27.5 28t-8 38q2 20 11.5 41.5t24 39.5t33.5 29.5t41 11.5zM160 450 q4 0 13 -4t18 -10t16 -13t7 -13q1 -13 -5 -24t-15.5 -19.5t-19.5 -12.5t-16 -2q-8 1 -21 9.5t-21 18.5q-10 -9 -20 -13.5t-17 -2.5q-5 1 -13.5 5.5t-16 11t-13 13.5t-5.5 13q0 7 4.5 16.5t12 18t16 15t16.5 6.5q3 0 10 -3t14.5 -7.5t15 -10t11.5 -10.5q13 16 29 18zM54 151 q5 -8 21 0t31 25q-11 8 -19 21.5t-11 31.5q-17 -23 -24 -45.5t2 -32.5z" />
<glyph unicode="&#xf7;" horiz-adv-x="319" d="M128 251q-9 5 -15.5 13t-5.5 16q1 6 5.5 15.5t10.5 19t13.5 17t14.5 9.5q7 1 17 -3t19 -10.5t14.5 -13.5t4.5 -13q0 -9 -12.5 -24.5t-25.5 -25.5q24 1 44.5 1t29.5 2q8 1 9.5 -2.5t-1.5 -9t-10.5 -10.5t-18.5 -6q-9 -2 -24 -3t-32.5 -2t-36.5 -1h-37q8 -2 16 -6.5 t14.5 -10.5t10.5 -12t4 -10q0 -6 -6 -15t-14 -18t-17.5 -16t-15.5 -8q-6 0 -14.5 3t-16 8t-12.5 11.5t-4 13.5q1 6 5 15t10 18.5t13 17t14 9.5q-19 0 -33.5 0.5t-19.5 0.5q-8 0 -8 4.5t5.5 10.5t14 10.5t19.5 4.5h72z" />
<glyph unicode="&#xf8;" d="M94 316q14 0 25.5 -7t13.5 -19q5 -2 10.5 -3.5t10.5 -4.5q20 19 36 36t27 28q12 13 22.5 11.5t16 -9t5 -17.5t-8.5 -14q-12 -7 -32.5 -22.5t-46.5 -36.5q7 -17 6 -36q25 -3 48.5 8t36.5 27q8 9 14.5 12t10.5 1t4 -7.5t-4 -12.5q-16 -27 -46.5 -49t-80.5 -28 q-13 -20 -32.5 -36t-46.5 -24q-11 -4 -28 -0.5t-32 12.5l-59 -58q-9 -9 -16 -10.5t-10.5 1.5t-3 9t7.5 13l63 60q-24 24 -21 54q2 20 11.5 41.5t24 39.5t33.5 29.5t41 11.5zM54 151q5 -8 21 0t31 25q-4 2 -7.5 5.5l-6.5 6.5l-39 -36q0 -1 1 -1zM80 211q-2 5 -2.5 9t-1.5 9 q-9 -11 -15.5 -22.5t-8.5 -22.5z" />
<glyph unicode="&#xf9;" horiz-adv-x="325" d="M49 311q7 5 19 2.5t23 -9t20 -15t10 -15.5q2 -5 -4 -15.5t-15.5 -22.5t-20 -25t-18 -22.5t-9.5 -14.5t6 -2q7 3 19.5 12.5t27.5 22.5t31 27.5t30 27.5t24 22t14 11q5 1 13 -1t16.5 -7t15 -12.5t9.5 -15.5t-7.5 -22.5t-23 -29.5t-21.5 -27t-4 -16q4 -3 21.5 7.5t39.5 26 t42.5 31.5t29.5 24q18 16 25 7.5t-3 -24.5q-6 -7 -23.5 -25.5t-38.5 -38.5t-42 -36t-33 -18q-13 -3 -27.5 0.5t-27.5 11.5t-22.5 19t-11.5 23q-2 8 0 14.5t4 9.5q-13 -11 -28.5 -24.5t-30.5 -25.5t-28 -20t-22 -8q-6 0 -17 3.5t-21.5 9.5t-19 13.5t-10.5 16.5q-1 9 8.5 29 t23 43t29.5 44.5t28 33.5zM235 358q-7 2 -22 6t-31.5 8.5t-31.5 10.5t-22 13q-6 7 -5.5 20t5.5 25t13 20.5t17 6.5t22 -11.5t27.5 -22t27.5 -25.5l21 -21q8 -9 8 -16t-4 -11t-11 -5t-14 2z" />
<glyph unicode="&#xfa;" horiz-adv-x="325" d="M49 311q7 5 19 2.5t23 -9t20 -15t10 -15.5q2 -5 -4 -15.5t-15.5 -22.5t-20 -25t-18 -22.5t-9.5 -14.5t6 -2q7 3 19.5 12.5t27.5 22.5t31 27.5t30 27.5t24 22t14 11q5 1 13 -1t16.5 -7t15 -12.5t9.5 -15.5t-7.5 -22.5t-23 -29.5t-21.5 -27t-4 -16q4 -3 21.5 7.5t39.5 26 t42.5 31.5t29.5 24q18 16 25 7.5t-3 -24.5q-6 -7 -23.5 -25.5t-38.5 -38.5t-42 -36t-33 -18q-13 -3 -27.5 0.5t-27.5 11.5t-22.5 19t-11.5 23q-2 8 0 14.5t4 9.5q-13 -11 -28.5 -24.5t-30.5 -25.5t-28 -20t-22 -8q-6 0 -17 3.5t-21.5 9.5t-19 13.5t-10.5 16.5q-1 9 8.5 29 t23 43t29.5 44.5t28 33.5zM148 395q5 4 16 15t23.5 23t25.5 22t22 12t20 -4.5t19 -17t11 -21.5t-3 -18t-21 -13.5t-33 -12.5t-35.5 -10.5t-29.5 -7.5t-17.5 0.5t-7 9t1 12t8.5 11.5z" />
<glyph unicode="&#xfb;" horiz-adv-x="325" d="M49 311q7 5 19 2.5t23 -9t20 -15t10 -15.5q2 -5 -4 -15.5t-15.5 -22.5t-20 -25t-18 -22.5t-9.5 -14.5t6 -2q7 3 19.5 12.5t27.5 22.5t31 27.5t30 27.5t24 22t14 11q5 1 13 -1t16.5 -7t15 -12.5t9.5 -15.5t-7.5 -22.5t-23 -29.5t-21.5 -27t-4 -16q4 -3 21.5 7.5t39.5 26 t42.5 31.5t29.5 24q18 16 25 7.5t-3 -24.5q-6 -7 -23.5 -25.5t-38.5 -38.5t-42 -36t-33 -18q-13 -3 -27.5 0.5t-27.5 11.5t-22.5 19t-11.5 23q-2 8 0 14.5t4 9.5q-13 -11 -28.5 -24.5t-30.5 -25.5t-28 -20t-22 -8q-6 0 -17 3.5t-21.5 9.5t-19 13.5t-10.5 16.5q-1 9 8.5 29 t23 43t29.5 44.5t28 33.5zM104 390q1 7 17.5 21t37.5 28.5t40.5 25t27.5 10.5q12 0 23 -10t19.5 -24t13.5 -28.5t4 -24.5q0 -5 -5.5 -9t-13 -6t-15 -2t-11.5 3q-5 4 -3.5 10.5t4.5 14.5t6 16.5t2 17.5q-9 -8 -21.5 -18.5t-25 -20.5t-23.5 -18t-18 -10t-17.5 -1t-20 4.5 t-16 8.5t-5.5 12z" />
<glyph unicode="&#xfc;" horiz-adv-x="325" d="M49 311q7 5 19 2.5t23 -9t20 -15t10 -15.5q2 -5 -4 -15.5t-15.5 -22.5t-20 -25t-18 -22.5t-9.5 -14.5t6 -2q7 3 19.5 12.5t27.5 22.5t31 27.5t30 27.5t24 22t14 11q5 1 13 -1t16.5 -7t15 -12.5t9.5 -15.5t-7.5 -22.5t-23 -29.5t-21.5 -27t-4 -16q4 -3 21.5 7.5t39.5 26 t42.5 31.5t29.5 24q18 16 25 7.5t-3 -24.5q-6 -7 -23.5 -25.5t-38.5 -38.5t-42 -36t-33 -18q-13 -3 -27.5 0.5t-27.5 11.5t-22.5 19t-11.5 23q-2 8 0 14.5t4 9.5q-13 -11 -28.5 -24.5t-30.5 -25.5t-28 -20t-22 -8q-6 0 -17 3.5t-21.5 9.5t-19 13.5t-10.5 16.5q-1 9 8.5 29 t23 43t29.5 44.5t28 33.5zM248 450q4 0 13 -4t18 -10t16 -13t7 -13q2 -13 -4 -24t-15.5 -19.5t-19.5 -12.5t-16 -2q-8 1 -21 9.5t-21 18.5q-10 -9 -20.5 -13.5t-16.5 -2.5q-5 1 -13.5 5.5t-16 11t-13 13.5t-5.5 13q0 7 4.5 16.5t12 18t16 15t16.5 6.5q3 0 10 -3t14.5 -7.5 t15 -10t11.5 -10.5q13 16 28 18z" />
<glyph unicode="&#xfd;" horiz-adv-x="282" d="M292 252q14 12 23 4.5t-5 -23.5q-4 -5 -22 -20.5t-45.5 -41t-63 -59.5t-73.5 -74q-45 -48 -74 -94.5t-48 -84.5t-30.5 -63.5t-20.5 -29.5t-23 -4.5t-26 3t-17 11t5 21.5q7 11 30.5 51t55.5 94t69.5 115.5t72.5 115.5q-20 -19 -39 -34t-31 -15q-6 0 -16 3.5t-20 9 t-18.5 13t-10.5 16.5q-1 8 7.5 27.5t22 42t29 44t28.5 32.5q6 5 16.5 3t21 -8.5t19 -15.5t9.5 -16q3 -7 -10 -25t-27.5 -35.5t-23.5 -30t2 -8.5q8 3 20.5 13t27 23.5t29.5 28.5t28 27q8 7 12.5 12.5t7.5 6.5q7 1 16 -2t17 -8t13 -12.5t5 -14.5q0 -8 -12 -23t-30.5 -37.5 t-43 -53t-49.5 -69.5q3 3 22.5 24t48 49.5t61 58.5t60.5 53zM146 395q6 4 16.5 15t23.5 23t26 22t22 12t20 -4.5t18.5 -17t11 -21.5t-2.5 -18t-21 -13.5t-33 -12.5t-35.5 -10.5t-29.5 -7.5t-17.5 0.5t-7 9t1 12t7.5 11.5z" />
<glyph unicode="&#xfe;" horiz-adv-x="390" d="M-204 -221q-5 -8 -17.5 -10.5t-24 0t-18.5 11t0 23.5q5 11 29.5 54.5t61 106t82.5 139t93.5 155t93 153t82.5 132.5t62 94.5t30 38.5q10 5 22.5 1t22 -12.5t15 -18t2.5 -15.5q-2 -4 -17.5 -30t-39.5 -65.5t-53.5 -87t-58.5 -93.5t-54 -85t-41 -61q15 14 31 28.5 t28.5 26.5t21.5 20t11 9q4 2 15.5 0.5t24 -6t23 -11t12.5 -13.5q2 -5 -4 -14.5t-15 -20t-20 -22.5t-20 -21.5t-13.5 -17t-1.5 -9.5q5 -3 28.5 9.5t52 30t53.5 34.5t33 24q15 15 22 7.5t-2 -21.5q-5 -7 -26.5 -27t-47.5 -42.5t-51 -41t-36 -21.5q-15 -3 -32 0t-32 10t-26 18 t-12 24q-1 6 4 16t11 20q7 11 16 24q-20 -16 -39 -33q-17 -14 -35 -32t-32 -35q-41 -61 -98 -151t-116 -192z" />
<glyph unicode="&#xff;" horiz-adv-x="282" d="M292 252q14 12 23 4.5t-5 -23.5q-4 -5 -22 -20.5t-45.5 -41t-63 -59.5t-73.5 -74q-45 -48 -74 -94.5t-48 -84.5t-30.5 -63.5t-20.5 -29.5t-23 -4.5t-26 3t-17 11t5 21.5q7 11 30.5 51t55.5 94t69.5 115.5t72.5 115.5q-20 -19 -39 -34t-31 -15q-6 0 -16 3.5t-20 9 t-18.5 13t-10.5 16.5q-1 8 7.5 27.5t22 42t29 44t28.5 32.5q6 5 16.5 3t21 -8.5t19 -15.5t9.5 -16q3 -7 -10 -25t-27.5 -35.5t-23.5 -30t2 -8.5q8 3 20.5 13t27 23.5t29.5 28.5t28 27q8 7 12.5 12.5t7.5 6.5q7 1 16 -2t17 -8t13 -12.5t5 -14.5q0 -8 -12 -23t-30.5 -37.5 t-43 -53t-49.5 -69.5q3 3 22.5 24t48 49.5t61 58.5t60.5 53zM238 450q4 0 13 -4t18 -10t16 -13t7 -13q1 -13 -5 -24t-15.5 -19.5t-19.5 -12.5t-16 -2q-8 1 -21 9.5t-21 18.5q-10 -9 -20 -13.5t-17 -2.5q-5 1 -13.5 5.5t-16 11t-13 13.5t-5.5 13q0 7 4.5 16.5t12 18t16 15 t16.5 6.5q3 0 10 -3t14.5 -7.5t15 -10t11.5 -10.5q13 16 29 18z" />
<glyph unicode="&#x100;" horiz-adv-x="839" d="M55 94q53 91 136.5 177t183 153.5t207.5 108.5t210 41q34 0 60 -7t41 -21t18.5 -36t-7.5 -53q-12 -34 -34.5 -79t-50 -92.5t-57.5 -95t-56.5 -87t-47 -67.5t-29.5 -38q-7 -9 -24.5 -12t-34 -0.5t-26 9.5t-0.5 19q14 20 30.5 43.5t33 48.5t32 49.5t27.5 46.5 q-74 -13 -143.5 -29.5t-136.5 -37t-133.5 -46t-134.5 -55.5q-13 -24 -18.5 -41t-10.5 -31q-2 -4 -10.5 -4.5t-19 2.5t-20 8t-12.5 12q-6 12 -4.5 27.5t6.5 32t12.5 31t12.5 23.5zM697 260q17 27 38.5 59.5t40.5 64.5t34 62t19 53t-5.5 37t-38.5 14q-59 0 -120.5 -23 t-123 -61.5t-120 -88t-111 -102.5t-96.5 -105.5t-76 -95.5q52 27 122 56t146.5 54.5t152 45.5t138.5 30zM751 643q26 0 54.5 0.5t48.5 3.5q8 1 9.5 -3t-1.5 -9t-10.5 -10t-18.5 -7q-32 -5 -64 -5h-49q-8 0 -8 4.5t5 10.5t14 10.5t20 4.5z" />
<glyph unicode="&#x101;" horiz-adv-x="287" d="M293 247q14 13 22.5 6.5t-5.5 -23.5q-8 -9 -22 -26.5t-29 -35.5t-30 -32t-25 -16q-13 -3 -36.5 4t-40.5 21q-13 -9 -25 -17.5t-24 -12.5q-11 -2 -27 1t-31.5 11.5t-27.5 20.5t-16 28q-4 17 8.5 40.5t30.5 44.5t37.5 36.5t30.5 16.5q7 1 17.5 -1t21 -7t19 -12t11.5 -16 q14 12 24 11q8 -2 17 -5t16.5 -7t12.5 -10t4 -13q0 -8 -8 -21.5t-17 -27.5t-15 -25t-2 -14q3 -2 13.5 4.5t25.5 18t33.5 26.5t36.5 32zM42 151q11 -6 27.5 6.5t31.5 31.5t25.5 39t10.5 30q-4 9 -14 5t-22 -15t-24.5 -27t-21.5 -30.5t-13.5 -26t0.5 -13.5zM142 410 q32 0 69.5 0.5t63.5 3.5q10 1 12 -3t-2.5 -9t-14 -10t-23.5 -7q-41 -5 -82 -5h-63q-10 0 -10 4.5t6 10.5t18 10.5t26 4.5z" />
<glyph unicode="&#x102;" horiz-adv-x="839" d="M55 94q53 91 136.5 177t183 153.5t207.5 108.5t210 41q34 0 60 -7t41 -21t18.5 -36t-7.5 -53q-12 -34 -34.5 -79t-50 -92.5t-57.5 -95t-56.5 -87t-47 -67.5t-29.5 -38q-7 -9 -24.5 -12t-34 -0.5t-26 9.5t-0.5 19q14 20 30.5 43.5t33 48.5t32 49.5t27.5 46.5 q-74 -13 -143.5 -29.5t-136.5 -37t-133.5 -46t-134.5 -55.5q-13 -24 -18.5 -41t-10.5 -31q-2 -4 -10.5 -4.5t-19 2.5t-20 8t-12.5 12q-6 12 -4.5 27.5t6.5 32t12.5 31t12.5 23.5zM697 260q17 27 38.5 59.5t40.5 64.5t34 62t19 53t-5.5 37t-38.5 14q-59 0 -120.5 -23 t-123 -61.5t-120 -88t-111 -102.5t-96.5 -105.5t-76 -95.5q52 27 122 56t146.5 54.5t152 45.5t138.5 30zM956 698q-1 -7 -15 -21t-36 -28.5t-49 -25t-54 -10.5q-21 0 -31 10.5t-12 25t2.5 29t12.5 23.5q6 7 21 13t23 0q4 -4 -0.5 -13.5t-10 -19.5t-7 -18t9.5 -8q16 0 29 10 t24 22t19.5 22.5t15.5 12.5t17.5 1t20 -4.5t15.5 -8.5t5 -12z" />
<glyph unicode="&#x103;" horiz-adv-x="287" d="M293 247q14 13 22.5 6.5t-5.5 -23.5q-8 -9 -22 -26.5t-29 -35.5t-30 -32t-25 -16q-13 -3 -36.5 4t-40.5 21q-13 -9 -25 -17.5t-24 -12.5q-11 -2 -27 1t-31.5 11.5t-27.5 20.5t-16 28q-4 17 8.5 40.5t30.5 44.5t37.5 36.5t30.5 16.5q7 1 17.5 -1t21 -7t19 -12t11.5 -16 q14 12 24 11q8 -2 17 -5t16.5 -7t12.5 -10t4 -13q0 -8 -8 -21.5t-17 -27.5t-15 -25t-2 -14q3 -2 13.5 4.5t25.5 18t33.5 26.5t36.5 32zM42 151q11 -6 27.5 6.5t31.5 31.5t25.5 39t10.5 30q-4 9 -14 5t-22 -15t-24.5 -27t-21.5 -30.5t-13.5 -26t0.5 -13.5zM316 445 q-2 -7 -16 -21t-36 -28.5t-49 -25t-54 -10.5q-21 0 -31 10.5t-12 25t2.5 29t12.5 23.5q3 3 9 7t12.5 6t13 2.5t10.5 -2.5q4 -4 -0.5 -13.5t-10 -19.5t-7.5 -18t9 -8q16 0 29 10t24 22t19.5 22.5t15.5 12.5t17.5 1t20 -4.5t16 -8.5t5.5 -12z" />
<glyph unicode="&#x104;" horiz-adv-x="839" d="M55 94q53 91 136.5 177t183 153.5t207.5 108.5t210 41q34 0 60 -7t41 -21t18.5 -36t-7.5 -53q-12 -34 -34.5 -79t-50 -92.5t-57.5 -95t-56.5 -87t-47 -67.5t-29.5 -38q-8 -11 -30 -13.5t-39 2.5q-11 -6 -26 -14t-27 -17t-19.5 -18.5t-3.5 -17.5q3 -7 8 -6.5t10.5 5 t10.5 10.5t7 10q3 5 10 2.5t13.5 -8.5t11 -14.5t1.5 -16.5t-14 -18t-26 -14t-31 2t-30 30q-9 16 -3 30.5t20.5 27.5t33.5 23.5t34 17.5q-2 7 4 13q14 20 30.5 43.5t33 48.5t32 49.5t27.5 46.5q-74 -13 -143.5 -29.5t-136.5 -37t-133.5 -46t-134.5 -55.5q-13 -24 -18.5 -41 t-10.5 -31q-2 -4 -10.5 -4.5t-19 2.5t-20 8t-12.5 12q-6 12 -4.5 27.5t6.5 32t12.5 31t12.5 23.5zM697 260q17 27 38.5 59.5t40.5 64.5t34 62t19 53t-5.5 37t-38.5 14q-59 0 -120.5 -23t-123 -61.5t-120 -88t-111 -102.5t-96.5 -105.5t-76 -95.5q52 27 122 56t146.5 54.5 t152 45.5t138.5 30z" />
<glyph unicode="&#x105;" horiz-adv-x="287" d="M293 247q14 13 22.5 6.5t-5.5 -23.5q-8 -9 -21.5 -26t-28.5 -35t-29.5 -32t-24.5 -17q-10 -5 -26 -13.5t-30.5 -18t-23.5 -20t-5 -19.5q3 -7 8 -6t10.5 5t10.5 10t7 10q3 5 10 3t14 -8t11 -15t1 -17t-14 -17.5t-25.5 -13.5t-31 2t-30.5 29q-8 15 -3.5 28.5t17 26t29 22.5 t32.5 17q-11 4 -21.5 8.5t-18.5 11.5q-13 -9 -25 -17.5t-24 -12.5q-11 -2 -27 1t-31.5 11.5t-27.5 20.5t-16 28q-4 17 8.5 40.5t30.5 44.5t37.5 36.5t30.5 16.5q7 1 17.5 -1t21 -7t19 -12t11.5 -16q14 12 24 11q8 -2 17 -5t16.5 -7t12.5 -10t4 -13q0 -8 -8 -21.5t-17 -27.5 t-15 -25t-2 -14q3 -2 13.5 4.5t25.5 18t33.5 26.5t36.5 32zM42 151q11 -6 27.5 6.5t31.5 31.5t25.5 39t10.5 30q-4 9 -14 5t-22 -15t-24.5 -27t-21.5 -30.5t-13.5 -26t0.5 -13.5z" />
<glyph unicode="&#x106;" horiz-adv-x="548" d="M37 74q-26 61 -5.5 126t74 129.5t133 124t171.5 109.5t189 86.5t185 54t161 12.5t116 -38q35 -27 37.5 -55.5t-18.5 -56.5t-59.5 -55t-86 -51t-98 -45t-95 -36.5t-77.5 -24.5t-45 -11q-10 -1 -19.5 8t-15 20.5t-4.5 22.5t13 13q-2 0 21 6.5t60.5 18.5t85 28t95.5 35 t91 39.5t71.5 41.5t38 41.5t-10.5 38.5q-29 27 -91.5 23.5t-144.5 -28.5t-175.5 -68t-183 -96.5t-168 -114t-130.5 -119t-70.5 -112t12.5 -94.5q15 -21 47 -23.5t72.5 7.5t86 29t88 41t79 45t59.5 41q6 5 7.5 3t0 -8.5t-6 -16.5t-10.5 -20q-18 -30 -54 -62.5t-81 -59.5 t-95 -43.5t-97.5 -14.5t-87.5 27t-65 82zM860 776q6 4 16.5 15t23.5 23t26 22t22 12t20 -4.5t18.5 -17t11 -21.5t-2.5 -18t-21 -13.5t-33 -12t-35.5 -10t-29.5 -7.5t-17.5 0t-7 8.5t1 12t7.5 11.5z" />
<glyph unicode="&#x107;" horiz-adv-x="246" d="M181 248q0 -20 -15.5 -35.5t-32.5 -26.5q-8 -5 -17.5 -5t-18 3t-13 8.5t-1.5 12.5q3 6 12.5 14.5t18.5 17.5t14 16.5t0 12.5q-6 6 -21.5 -9.5t-30 -37.5t-22.5 -44t2 -29q10 -8 34 -1t51.5 22t54.5 34t43 35q9 10 16.5 13.5t11.5 1t2.5 -9.5t-10.5 -19q-11 -13 -29 -31.5 t-38.5 -36t-41.5 -31t-37 -17.5q-14 -4 -35.5 -1.5t-43.5 10.5t-38.5 22t-19.5 33q-4 15 3.5 36t21 41t30 36.5t28.5 23.5t32.5 2.5t40.5 -14t34.5 -23t14.5 -24.5zM126 391q5 4 16 15t23.5 23t25.5 22t23 12q9 2 20 -4.5t18.5 -17t10.5 -21.5t-3 -18t-20.5 -13.5t-32.5 -12 t-35.5 -10t-29.5 -7.5t-18 0t-7.5 8.5t1.5 12t8 11.5z" />
<glyph unicode="&#x108;" horiz-adv-x="548" d="M37 74q-26 61 -5.5 126t74 129.5t133 124t171.5 109.5t189 86.5t185 54t161 12.5t116 -38q35 -27 37.5 -55.5t-18.5 -56.5t-59.5 -55t-86 -51t-98 -45t-95 -36.5t-77.5 -24.5t-45 -11q-10 -1 -19.5 8t-15 20.5t-4.5 22.5t13 13q-2 0 21 6.5t60.5 18.5t85 28t95.5 35 t91 39.5t71.5 41.5t38 41.5t-10.5 38.5q-29 27 -91.5 23.5t-144.5 -28.5t-175.5 -68t-183 -96.5t-168 -114t-130.5 -119t-70.5 -112t12.5 -94.5q15 -21 47 -23.5t72.5 7.5t86 29t88 41t79 45t59.5 41q6 5 7.5 3t0 -8.5t-6 -16.5t-10.5 -20q-18 -30 -54 -62.5t-81 -59.5 t-95 -43.5t-97.5 -14.5t-87.5 27t-65 82zM902 764q1 5 9 13.5t20 18t26 19t27.5 17.5t24.5 13t16 5q12 0 23 -10t19.5 -24t13.5 -29t4 -25q0 -5 -5.5 -9t-13 -6t-15 -1.5t-11.5 3.5q-5 3 -3.5 9.5t4.5 14.5t6 17t2 18q-9 -8 -21.5 -19t-25 -21t-23.5 -18t-18 -10t-17.5 -0.5 t-20 4.5t-16 8t-5.5 12z" />
<glyph unicode="&#x109;" horiz-adv-x="246" d="M181 248q0 -20 -15.5 -35.5t-32.5 -26.5q-8 -5 -17.5 -5t-18 3t-13 8.5t-1.5 12.5q3 6 12.5 14.5t18.5 17.5t14 16.5t0 12.5q-6 6 -21.5 -9.5t-30 -37.5t-22.5 -44t2 -29q10 -8 34 -1t51.5 22t54.5 34t43 35q9 10 16.5 13.5t11.5 1t2.5 -9.5t-10.5 -19q-11 -13 -29 -31.5 t-38.5 -36t-41.5 -31t-37 -17.5q-14 -4 -35.5 -1.5t-43.5 10.5t-38.5 22t-19.5 33q-4 15 3.5 36t21 41t30 36.5t28.5 23.5t32.5 2.5t40.5 -14t34.5 -23t14.5 -24.5zM65 390q1 7 17.5 21t37 28.5t40 25t27.5 10.5q12 0 23 -10t20 -24t13.5 -28.5t3.5 -24.5q0 -5 -5.5 -9 t-12.5 -6t-14.5 -2t-11.5 3q-5 4 -3.5 10.5t4.5 14.5t5.5 16.5t1.5 17.5q-9 -8 -21.5 -18.5t-24.5 -20.5t-23 -18t-18 -10t-17.5 -1t-20.5 4.5t-16.5 8.5t-4.5 12z" />
<glyph unicode="&#x10a;" horiz-adv-x="548" d="M37 74q-26 61 -5.5 126t74 129.5t133 124t171.5 109.5t189 86.5t185 54t161 12.5t116 -38q35 -27 37.5 -55.5t-18.5 -56.5t-59.5 -55t-86 -51t-98 -45t-95 -36.5t-77.5 -24.5t-45 -11q-10 -1 -19.5 8t-15 20.5t-4.5 22.5t13 13q-2 0 21 6.5t60.5 18.5t85 28t95.5 35 t91 39.5t71.5 41.5t38 41.5t-10.5 38.5q-29 27 -91.5 23.5t-144.5 -28.5t-175.5 -68t-183 -96.5t-168 -114t-130.5 -119t-70.5 -112t12.5 -94.5q15 -21 47 -23.5t72.5 7.5t86 29t88 41t79 45t59.5 41q6 5 7.5 3t0 -8.5t-6 -16.5t-10.5 -20q-18 -30 -54 -62.5t-81 -59.5 t-95 -43.5t-97.5 -14.5t-87.5 27t-65 82zM977 834q4 0 13 -4t18 -10t16 -13t7 -13q2 -13 -4.5 -24.5t-15.5 -19.5t-19 -12.5t-16 -3.5t-14 6t-15.5 11.5t-13 13.5t-5.5 13q0 7 4.5 16.5t11.5 18t16 15t17 6.5z" />
<glyph unicode="&#x10b;" horiz-adv-x="246" d="M181 248q0 -20 -15.5 -35.5t-32.5 -26.5q-8 -5 -17.5 -5t-18 3t-13 8.5t-1.5 12.5q3 6 12.5 14.5t18.5 17.5t14 16.5t0 12.5q-6 6 -21.5 -9.5t-30 -37.5t-22.5 -44t2 -29q10 -8 34 -1t51.5 22t54.5 34t43 35q9 10 16.5 13.5t11.5 1t2.5 -9.5t-10.5 -19q-11 -13 -29 -31.5 t-38.5 -36t-41.5 -31t-37 -17.5q-14 -4 -35.5 -1.5t-43.5 10.5t-38.5 22t-19.5 33q-4 15 3.5 36t21 41t30 36.5t28.5 23.5t32.5 2.5t40.5 -14t34.5 -23t14.5 -24.5zM178 463q4 0 13 -4t18 -10t16 -13t7 -12q1 -13 -5 -24.5t-15.5 -20t-19.5 -13t-16 -2.5q-5 1 -13.5 5.5 t-16 11t-13 13.5t-5.5 13q0 7 4.5 16.5t12 18t16.5 15t17 6.5z" />
<glyph unicode="&#x10c;" horiz-adv-x="548" d="M37 74q-26 61 -5.5 126t74 129.5t133 124t171.5 109.5t189 86.5t185 54t161 12.5t116 -38q35 -27 37.5 -55.5t-18.5 -56.5t-59.5 -55t-86 -51t-98 -45t-95 -36.5t-77.5 -24.5t-45 -11q-10 -1 -19.5 8t-15 20.5t-4.5 22.5t13 13q-2 0 21 6.5t60.5 18.5t85 28t95.5 35 t91 39.5t71.5 41.5t38 41.5t-10.5 38.5q-29 27 -91.5 23.5t-144.5 -28.5t-175.5 -68t-183 -96.5t-168 -114t-130.5 -119t-70.5 -112t12.5 -94.5q15 -21 47 -23.5t72.5 7.5t86 29t88 41t79 45t59.5 41q6 5 7.5 3t0 -8.5t-6 -16.5t-10.5 -20q-18 -30 -54 -62.5t-81 -59.5 t-95 -43.5t-97.5 -14.5t-87.5 27t-65 82zM1070 823q-1 -7 -17.5 -21t-37 -28.5t-40.5 -25t-27 -10.5q-12 0 -23 10t-20 24t-14 29t-3 25q0 5 5.5 8.5t13 5.5t14.5 2t11 -3q4 -4 3 -10.5t-4 -14.5t-6 -16.5t-1 -17.5q9 7 21.5 18t25 21t23.5 18t18 10t17.5 1t20 -4.5 t15.5 -8.5t5 -12z" />
<glyph unicode="&#x10d;" horiz-adv-x="246" d="M181 248q0 -20 -15.5 -35.5t-32.5 -26.5q-8 -5 -17.5 -5t-18 3t-13 8.5t-1.5 12.5q3 6 12.5 14.5t18.5 17.5t14 16.5t0 12.5q-6 6 -21.5 -9.5t-30 -37.5t-22.5 -44t2 -29q10 -8 34 -1t51.5 22t54.5 34t43 35q9 10 16.5 13.5t11.5 1t2.5 -9.5t-10.5 -19q-11 -13 -29 -31.5 t-38.5 -36t-41.5 -31t-37 -17.5q-14 -4 -35.5 -1.5t-43.5 10.5t-38.5 22t-19.5 33q-4 15 3.5 36t21 41t30 36.5t28.5 23.5t32.5 2.5t40.5 -14t34.5 -23t14.5 -24.5zM292 445q-2 -7 -18 -21t-37 -28.5t-40.5 -25t-27.5 -10.5q-12 0 -23 10t-19.5 24t-13.5 29t-4 25 q0 5 5.5 8.5t13 5.5t15 2t11.5 -3q4 -4 3 -10.5t-4 -14.5t-6 -16.5t-2 -17.5q9 7 21.5 18t25 21t23.5 18t18 10t17.5 1t20 -4.5t16 -8.5t5.5 -12z" />
<glyph unicode="&#x10e;" horiz-adv-x="1009" d="M244 541q56 40 125 66.5t141.5 39.5t144.5 11t133.5 -19.5t109 -50.5t72.5 -82q24 -50 21.5 -102t-23.5 -103.5t-58 -99.5t-83 -89q-71 -63 -163.5 -114.5t-194.5 -78.5t-208 -24.5t-203 47.5q-21 10 -35 20t-16.5 16t8 5.5t39.5 -11.5q66 -27 140.5 -27.5t146.5 15.5 q-2 34 6.5 81.5t23.5 99t35.5 102.5t42 92.5t42 69t37.5 32.5q16 4 33 4t29.5 -3.5t18 -10t-1.5 -13.5q-19 -22 -48 -69t-58 -107.5t-54 -128t-35 -131.5q74 19 150.5 58t144.5 89.5t122.5 108.5t84 115t29.5 108.5t-41 88.5q-35 33 -89.5 45.5t-119 9t-134.5 -21t-136 -45 t-124 -63t-99 -74.5q-10 -9 -15 4.5t-2 37.5t17.5 52.5t43.5 49.5zM902 758q-1 -7 -17.5 -21t-37 -28.5t-40.5 -25t-27 -10.5q-12 0 -23 10t-20 24t-14 29t-3 25q0 5 5.5 8.5t13 5.5t14.5 2t11 -3q4 -4 3 -10.5t-4 -14.5t-6 -16.5t-1 -17.5q9 8 21.5 19t25 21t23.5 17.5 t18 9.5t17.5 1t20 -4.5t15.5 -8.5t5 -12z" />
<glyph unicode="&#x10f;" horiz-adv-x="280" d="M78 304q13 2 29.5 -0.5t29.5 -10.5q25 54 61 119t74.5 122.5t74.5 97.5t60 45q20 3 37 -2t29.5 -14t19.5 -19.5t9 -17.5q2 -15 -12.5 -39.5t-54 -70.5t-107.5 -119t-171 -186q-8 -17 -3 -22q3 -5 20 1t38.5 17.5t42 24t29.5 21.5q10 9 15 9t6.5 -4.5t-1.5 -12t-10 -14.5 q-51 -52 -79.5 -76t-41.5 -27q-17 -3 -31 11t-24 33q-18 -20 -35.5 -34.5t-26.5 -16.5q-11 -2 -24.5 0.5t-26 9.5t-22.5 18.5t-13 26.5q-4 18 8.5 40t31 41.5t38 33t30.5 15.5zM455 622q-5 3 -18.5 -9.5t-33 -35t-43.5 -54t-49 -66.5t-49.5 -71.5t-45.5 -69.5q27 30 56.5 63 t57.5 65.5t53 63t42.5 54.5t26 40t3.5 20zM43 151q5 -5 21 6t42 46q0 13 4 26t12 31q-12 -3 -28 -18.5t-29 -34t-20 -35.5t-2 -21zM400 361q-11 -6 -21 -1.5t-8 18.5q1 6 8.5 25.5t17 41t20 38.5t17.5 19q7 1 17 -3t19 -10.5t15 -14t5 -12.5q0 -6 -12 -21t-27 -31.5 t-30 -30.5t-21 -18z" />
<glyph unicode="&#x110;" horiz-adv-x="1009" d="M244 541q56 40 125 66.5t141.5 39.5t144.5 11t133.5 -19.5t109 -50.5t72.5 -82q24 -50 21.5 -102t-23.5 -103.5t-58 -99.5t-83 -89q-71 -63 -163.5 -114.5t-194.5 -78.5t-208 -24.5t-203 47.5q-21 10 -35 20t-16.5 16t8 5.5t39.5 -11.5q66 -27 140.5 -27.5t146.5 15.5 q-3 40 8 96.5t31 116.5q-5 0 -10.5 0.5t-9.5 0.5q-10 0 -11 3.5t3.5 8t14.5 9.5t23 7q16 43 34 84t36.5 73t36 53t31.5 25q16 4 33 4t29.5 -3.5t18 -10t-1.5 -13.5q-22 -26 -56 -82.5t-66 -128.5q20 0 38 0.5t34 1.5q11 1 13.5 -2t-2 -8t-15.5 -9.5t-27 -6.5q-14 -2 -27 -3 l-26 -2q-21 -48 -37 -98t-24 -98q74 19 150.5 58t144.5 89.5t122.5 108.5t84 115t29.5 108.5t-41 88.5q-35 33 -89.5 45.5t-119 9t-134.5 -21t-136 -45t-124 -63t-99 -74.5q-10 -9 -15 4.5t-2 37.5t17.5 52.5t43.5 49.5z" />
<glyph unicode="&#x111;" horiz-adv-x="275" d="M78 304q13 2 29.5 -0.5t29.5 -10.5q11 25 25.5 53t30.5 57q-9 0 -17.5 0.5t-14.5 0.5q-14 0 -14.5 4.5t8 10.5t23.5 11t33 6q26 44 53.5 86t53.5 75t49 55t40 25q20 3 37 -2t29.5 -14t19.5 -19.5t9 -17.5q1 -11 -5 -25t-21.5 -35.5t-42 -52t-66.5 -74.5l28 2q13 1 16 -3 t-3 -9t-19.5 -10.5t-32.5 -7.5l-16 -2l-183 -198q-8 -17 -3 -22q3 -5 20 1t38.5 17.5t42 24t29.5 21.5q10 9 15 9t6.5 -4.5t-1.5 -12t-10 -14.5q-51 -52 -79.5 -76t-41.5 -27q-17 -3 -31 11t-24 33q-18 -20 -35.5 -34.5t-26.5 -16.5q-11 -2 -24.5 0.5t-26 9.5t-22.5 18.5 t-13 26.5q-4 18 8.5 40t31 41.5t38 33t30.5 15.5zM455 622q-6 3 -21.5 -11.5t-37 -40.5t-48 -61t-53.5 -73h28q29 34 55 66t45 57t28 42t4 21zM43 151q5 -5 21 6t42 46q0 13 4 26t12 31q-12 -3 -28 -18.5t-29 -34t-20 -35.5t-2 -21zM295 404h-21l-58 -88z" />
<glyph unicode="&#x112;" horiz-adv-x="784" d="M76 227q-12 51 15.5 100.5t82 95t129.5 84.5t157.5 68.5t166 47t155.5 20t125.5 -12t76.5 -49.5q17 -26 13 -53.5t-20.5 -51t-39.5 -40.5t-43 -23q-21 -6 -38 -2t-28 12t-14.5 16.5t4.5 11.5q15 6 43.5 20.5t53 32.5t38 37t0.5 35q-15 18 -52.5 21t-89.5 -5t-113 -24.5 t-122.5 -37.5t-119 -45t-100.5 -46q-19 -9 -45.5 -24t-55.5 -34t-56.5 -41t-46.5 -45t-27.5 -47t0.5 -46q7 -17 25 -22.5t38 -5t38 4t24 3.5q55 31 106 51t93.5 30.5t74.5 12t50 -5.5q25 -9 12 -26t-50 -36t-90 -36t-106 -26q-13 -3 -37 -16t-51.5 -31.5t-54.5 -41 t-46 -44.5t-27.5 -41.5t2.5 -33.5q13 -18 51 -13.5t90.5 22.5t115 47.5t124.5 62t119 65t99 58.5q9 6 16.5 9.5t10.5 3t0.5 -7t-13.5 -19.5q-14 -17 -52 -51t-91 -71.5t-116.5 -74t-127 -59.5t-123 -27t-105.5 23q-32 18 -45.5 46t-7 60t33.5 66.5t77 65.5q-38 8 -68.5 29.5 t-37.5 53.5zM714 703h51t53.5 0.5t51 1t44.5 1.5q15 1 18.5 -2.5t-3 -8.5t-21.5 -9.5t-36 -6.5q-30 -3 -62 -4t-61.5 -1h-54.5h-41q-15 0 -15 4.5t9.5 10t27.5 10t39 4.5z" />
<glyph unicode="&#x113;" horiz-adv-x="241" d="M245 244q19 14 21 9t-7 -19q-9 -15 -25.5 -35t-36.5 -38t-42 -32t-41 -17q-13 -2 -34 6.5t-40.5 24.5t-32.5 37t-9 43q3 18 15 34.5t27 29t30.5 20t26.5 7.5q9 0 20.5 -5t21 -13t15 -18.5t4.5 -21.5q-2 -11 -15 -25.5t-29 -28.5q-18 -16 -42 -33q22 -6 70.5 14t102.5 61z M127 263q-4 3 -18.5 -4.5t-28.5 -19.5t-23.5 -26.5t-4.5 -24.5q6 3 19.5 14t27 24t22.5 23.5t6 13.5zM95 415q29 0 63.5 0.5t58.5 4.5q9 1 11 -3.5t-2 -11t-12.5 -12.5t-21.5 -8q-38 -6 -76 -5.5t-58 0.5q-10 0 -10 5.5t6 12t17 12t24 5.5z" />
<glyph unicode="&#x116;" horiz-adv-x="784" d="M76 227q-12 51 15.5 100.5t82 95t129.5 84.5t157.5 68.5t166 47t155.5 20t125.5 -12t76.5 -49.5q17 -26 13 -53.5t-20.5 -51t-39.5 -40.5t-43 -23q-21 -6 -38 -2t-28 12t-14.5 16.5t4.5 11.5q15 6 43.5 20.5t53 32.5t38 37t0.5 35q-15 18 -52.5 21t-89.5 -5t-113 -24.5 t-122.5 -37.5t-119 -45t-100.5 -46q-19 -9 -45.5 -24t-55.5 -34t-56.5 -41t-46.5 -45t-27.5 -47t0.5 -46q7 -17 25 -22.5t38 -5t38 4t24 3.5q55 31 106 51t93.5 30.5t74.5 12t50 -5.5q25 -9 12 -26t-50 -36t-90 -36t-106 -26q-13 -3 -37 -16t-51.5 -31.5t-54.5 -41 t-46 -44.5t-27.5 -41.5t2.5 -33.5q13 -18 51 -13.5t90.5 22.5t115 47.5t124.5 62t119 65t99 58.5q9 6 16.5 9.5t10.5 3t0.5 -7t-13.5 -19.5q-14 -17 -52 -51t-91 -71.5t-116.5 -74t-127 -59.5t-123 -27t-105.5 23q-32 18 -45.5 46t-7 60t33.5 66.5t77 65.5q-38 8 -68.5 29.5 t-37.5 53.5zM726 763q4 0 13 -4t18 -10t16 -13t7 -12q2 -13 -4.5 -24.5t-15.5 -20t-19 -13t-16 -2.5q-6 1 -14 5.5t-15.5 11t-13 13.5t-5.5 13q0 7 4.5 16.5t11.5 18t16 15t17 6.5z" />
<glyph unicode="&#x117;" horiz-adv-x="241" d="M245 244q19 14 21 9t-7 -19q-9 -15 -25.5 -35t-36.5 -38t-42 -32t-41 -17q-13 -2 -34 6.5t-40.5 24.5t-32.5 37t-9 43q3 18 15 34.5t27 29t30.5 20t26.5 7.5q9 0 20.5 -5t21 -13t15 -18.5t4.5 -21.5q-2 -11 -15 -25.5t-29 -28.5q-18 -16 -42 -33q22 -6 70.5 14t102.5 61z M127 263q-4 3 -18.5 -4.5t-28.5 -19.5t-23.5 -26.5t-4.5 -24.5q6 3 19.5 14t27 24t22.5 23.5t6 13.5zM156 463q4 0 13 -4t18 -10t16 -13t7 -12q2 -13 -4.5 -24.5t-15.5 -20t-19 -13t-16 -2.5q-6 1 -14 5.5t-15.5 11t-13 13.5t-5.5 13q0 7 4.5 16.5t11.5 18t16 15t17 6.5z " />
<glyph unicode="&#x118;" horiz-adv-x="784" d="M76 227q-12 51 15.5 100.5t82 95t129.5 84.5t157.5 68.5t166 47t155.5 20t125.5 -12t76.5 -49.5q17 -26 13 -53.5t-20.5 -51t-39.5 -40.5t-43 -23q-21 -6 -38 -2t-28 12t-14.5 16.5t4.5 11.5q15 6 43.5 20.5t53 32.5t38 37t0.5 35q-15 18 -52.5 21t-89.5 -5t-113 -24.5 t-122.5 -37.5t-119 -45t-100.5 -46q-19 -9 -45.5 -24t-55.5 -34t-56.5 -41t-46.5 -45t-27.5 -47t0.5 -46q7 -17 25 -22.5t38 -5t38 4t24 3.5q55 31 106 51t93.5 30.5t74.5 12t50 -5.5q25 -9 12 -26t-50 -36t-90 -36t-106 -26q-13 -3 -37 -16t-51.5 -31.5t-54.5 -41 t-46 -44.5t-27.5 -41.5t2.5 -33.5q13 -18 51 -13.5t90.5 22.5t115 47.5t124.5 62t119 65t99 58.5q9 6 16.5 9.5t10.5 3t0.5 -7t-13.5 -19.5t-35.5 -35.5t-59 -49.5t-77 -56t-89 -55t-95.5 -47t-95 -31q-9 -5 -25.5 -13.5t-31 -18.5t-24 -21t-5.5 -20q3 -7 8 -6.5t10.5 5 t10.5 10.5t7 10q3 5 10 2.5t13.5 -8.5t11 -14.5t1.5 -16.5t-14 -18t-26 -14t-31 2t-30 30q-7 12 -4.5 23.5t10.5 22t20.5 20t26.5 17.5q-55 -3 -102 22q-32 18 -45.5 46t-7 60t33.5 66.5t77 65.5q-38 8 -68.5 29.5t-37.5 53.5z" />
<glyph unicode="&#x119;" horiz-adv-x="241" d="M245 244q19 14 21 9t-7 -19q-9 -15 -25.5 -35t-36.5 -38t-42 -32t-41 -17q-13 -2 -34 6.5t-40.5 24.5t-32.5 37t-9 43q3 18 15 34.5t27 29t30.5 20t26.5 7.5q9 0 20.5 -5t21 -13t15 -18.5t4.5 -21.5q-2 -11 -15 -25.5t-29 -28.5q-18 -16 -42 -33q22 -6 70.5 14t102.5 61z M127 263q-4 3 -18.5 -4.5t-28.5 -19.5t-23.5 -26.5t-4.5 -24.5q6 3 19.5 14t27 24t22.5 23.5t6 13.5zM248 114q-8 -5 -24.5 -13.5t-32.5 -18.5t-26.5 -21t-6.5 -21q3 -7 8 -6.5t10.5 5t10.5 10.5t7 10q3 5 10.5 2.5t14 -8.5t10.5 -14.5t1 -16.5t-14 -18t-25.5 -14t-30.5 2 t-30 30q-12 19 0.5 37.5t34 33t44.5 25t31 13.5q17 6 21 -0.5t-13 -16.5z" />
<glyph unicode="&#x11a;" horiz-adv-x="784" d="M76 227q-12 51 15.5 100.5t82 95t129.5 84.5t157.5 68.5t166 47t155.5 20t125.5 -12t76.5 -49.5q17 -26 13 -53.5t-20.5 -51t-39.5 -40.5t-43 -23q-21 -6 -38 -2t-28 12t-14.5 16.5t4.5 11.5q15 6 43.5 20.5t53 32.5t38 37t0.5 35q-15 18 -52.5 21t-89.5 -5t-113 -24.5 t-122.5 -37.5t-119 -45t-100.5 -46q-19 -9 -45.5 -24t-55.5 -34t-56.5 -41t-46.5 -45t-27.5 -47t0.5 -46q7 -17 25 -22.5t38 -5t38 4t24 3.5q55 31 106 51t93.5 30.5t74.5 12t50 -5.5q25 -9 12 -26t-50 -36t-90 -36t-106 -26q-13 -3 -37 -16t-51.5 -31.5t-54.5 -41 t-46 -44.5t-27.5 -41.5t2.5 -33.5q13 -18 51 -13.5t90.5 22.5t115 47.5t124.5 62t119 65t99 58.5q9 6 16.5 9.5t10.5 3t0.5 -7t-13.5 -19.5q-14 -17 -52 -51t-91 -71.5t-116.5 -74t-127 -59.5t-123 -27t-105.5 23q-32 18 -45.5 46t-7 60t33.5 66.5t77 65.5q-38 8 -68.5 29.5 t-37.5 53.5zM827 750q-2 -7 -18 -21t-37 -28.5t-40.5 -25t-27.5 -10.5q-12 0 -23 10t-19.5 24t-13.5 28.5t-4 24.5q1 5 6.5 9t12.5 6t14.5 2t11.5 -3q4 -4 3 -10.5t-4 -14.5t-6 -16.5t-2 -17.5q10 7 22.5 18t24.5 21t23 18t18 10t17.5 1t20 -4.5t16 -8.5t5.5 -12z" />
<glyph unicode="&#x11b;" horiz-adv-x="241" d="M245 244q19 14 21 9t-7 -19q-9 -15 -25.5 -35t-36.5 -38t-42 -32t-41 -17q-13 -2 -34 6.5t-40.5 24.5t-32.5 37t-9 43q3 18 15 34.5t27 29t30.5 20t26.5 7.5q9 0 20.5 -5t21 -13t15 -18.5t4.5 -21.5q-2 -11 -15 -25.5t-29 -28.5q-18 -16 -42 -33q22 -6 70.5 14t102.5 61z M127 263q-4 3 -18.5 -4.5t-28.5 -19.5t-23.5 -26.5t-4.5 -24.5q6 3 19.5 14t27 24t22.5 23.5t6 13.5zM259 445q-1 -7 -17.5 -21t-37 -28.5t-40.5 -25t-27 -10.5q-12 0 -23 10t-20 24t-14 29t-3 25q0 5 5.5 8.5t12.5 5.5t14.5 2t11.5 -3q4 -4 3 -10.5t-4 -14.5t-6 -16.5 t-1 -17.5q9 7 21.5 18t24.5 21t23 18t18 10t17.5 1t20 -4.5t16 -8.5t5.5 -12z" />
<glyph unicode="&#x11c;" horiz-adv-x="688" d="M62 60q-33 68 -18 135t63.5 127.5t123 113t159.5 92.5t174 65t167 30t137.5 -11t85.5 -59q8 -14 4 -28t-16 -27.5t-30 -25t-37.5 -20.5t-38 -14t-31.5 -5q-22 0 -36 7t-21 15t-7.5 15.5t4.5 9.5q16 4 46.5 11.5t59.5 18.5t47.5 25.5t9.5 34.5q-7 14 -35 17.5t-63 0 t-71.5 -11.5t-61.5 -16q-61 -19 -133.5 -49.5t-143.5 -69.5t-135.5 -84t-110 -93t-66 -96.5t-4.5 -94.5q9 -25 31.5 -38t53 -17t66.5 0t70.5 14.5t65.5 26t53 33.5q18 30 38.5 59.5t41.5 54.5t42 45.5t40 32.5q10 7 23 8.5t23 -1t15.5 -7.5t2.5 -9q-44 -60 -81.5 -114.5 t-70 -110t-61.5 -115t-57 -129.5q-3 -7 -10 -4t-14 12.5t-12 24.5t-4 33q3 70 37 136q-38 -18 -85 -26t-92.5 -3t-82.5 25t-55 56zM725 664q1 7 17.5 21t37 28.5t40 25t27.5 10.5q12 0 23 -10t20 -24t13.5 -29t3.5 -25q0 -5 -5.5 -8.5t-12.5 -5.5t-14.5 -2t-11.5 3 q-5 4 -3.5 10.5t4.5 14.5t5.5 16.5t1.5 17.5q-9 -8 -21.5 -19t-24.5 -21t-23 -18t-18 -9q-7 -2 -17.5 -1t-20.5 4.5t-16.5 8.5t-4.5 12z" />
<glyph unicode="&#x11d;" horiz-adv-x="271" d="M280 252q7 6 13.5 6.5t10 -2.5t3 -9t-7.5 -14q-4 -5 -22 -20.5t-46 -41t-63 -59.5t-73 -74q-45 -48 -74 -94.5t-48 -84.5t-30.5 -63.5t-20.5 -29.5t-23.5 -4.5t-26.5 3t-17.5 11t3.5 21.5q7 9 26.5 41t47 77t60.5 100t69 111q-12 -2 -25 0.5t-24.5 9t-20 17.5t-11.5 26 q-5 19 6 42t28.5 43t36.5 35t31 17q9 1 20 -2.5t22 -9.5t19.5 -14.5t13.5 -18.5q15 22 23 24q6 2 15.5 -1t18 -8.5t14.5 -13t6 -14.5q-1 -8 -14 -24.5t-34 -40.5t-46.5 -55.5t-51.5 -70.5q3 3 22.5 24t48 49.5t61 58.5t60.5 53zM136 244q2 4 0 9q-4 10 -13 7.5t-20 -12.5 t-22 -24.5t-19.5 -29t-12.5 -26.5t0 -16q5 -5 18 4.5t27 22.5zM80 390q1 7 17.5 21t37.5 28.5t40.5 25t27.5 10.5q12 0 23 -10t19.5 -24t13.5 -28.5t4 -24.5q0 -5 -5.5 -9t-13 -6t-15 -2t-11.5 3q-5 4 -3.5 10.5t4.5 14.5t6 16.5t2 17.5q-9 -8 -21.5 -18.5t-25 -20.5 t-23.5 -18t-18 -10t-17.5 -1t-20 4.5t-16 8.5t-5.5 12z" />
<glyph unicode="&#x11e;" horiz-adv-x="688" d="M62 60q-33 68 -18 135t63.5 127.5t123 113t159.5 92.5t174 65t167 30t137.5 -11t85.5 -59q8 -14 4 -28t-16 -27.5t-30 -25t-37.5 -20.5t-38 -14t-31.5 -5q-22 0 -36 7t-21 15t-7.5 15.5t4.5 9.5q16 4 46.5 11.5t59.5 18.5t47.5 25.5t9.5 34.5q-7 14 -35 17.5t-63 0 t-71.5 -11.5t-61.5 -16q-61 -19 -133.5 -49.5t-143.5 -69.5t-135.5 -84t-110 -93t-66 -96.5t-4.5 -94.5q9 -25 31.5 -38t53 -17t66.5 0t70.5 14.5t65.5 26t53 33.5q18 30 38.5 59.5t41.5 54.5t42 45.5t40 32.5q10 7 23 8.5t23 -1t15.5 -7.5t2.5 -9q-44 -60 -81.5 -114.5 t-70 -110t-61.5 -115t-57 -129.5q-3 -7 -10 -4t-14 12.5t-12 24.5t-4 33q3 70 37 136q-38 -18 -85 -26t-92.5 -3t-82.5 25t-55 56zM871 742q-1 -8 -15.5 -22t-36.5 -28.5t-49 -25t-54 -10.5q-21 0 -31 10.5t-11.5 25t3 29t12.5 23.5q6 7 21 13.5t23 -0.5q4 -3 -0.5 -13 t-10 -20t-7 -18t9.5 -8q16 0 29 10t23.5 22t19 23t15.5 13q7 1 17.5 0t20 -4t16 -8t5.5 -12z" />
<glyph unicode="&#x11f;" horiz-adv-x="271" d="M280 252q7 6 13.5 6.5t10 -2.5t3 -9t-7.5 -14q-4 -5 -22 -20.5t-46 -41t-63 -59.5t-73 -74q-45 -48 -74 -94.5t-48 -84.5t-30.5 -63.5t-20.5 -29.5t-23.5 -4.5t-26.5 3t-17.5 11t3.5 21.5q7 9 26.5 41t47 77t60.5 100t69 111q-12 -2 -25 0.5t-24.5 9t-20 17.5t-11.5 26 q-5 19 6 42t28.5 43t36.5 35t31 17q9 1 20 -2.5t22 -9.5t19.5 -14.5t13.5 -18.5q15 22 23 24q6 2 15.5 -1t18 -8.5t14.5 -13t6 -14.5q-1 -8 -14 -24.5t-34 -40.5t-46.5 -55.5t-51.5 -70.5q3 3 22.5 24t48 49.5t61 58.5t60.5 53zM136 244q2 4 0 9q-4 10 -13 7.5t-20 -12.5 t-22 -24.5t-19.5 -29t-12.5 -26.5t0 -16q5 -5 18 4.5t27 22.5zM337 445q-1 -7 -15.5 -21t-36.5 -28.5t-49 -25t-54 -10.5q-21 0 -31 10.5t-11.5 25t3 29t12.5 23.5q6 7 21 13t23 0q4 -4 -0.5 -13.5t-10 -19.5t-7 -18t9.5 -8q16 0 29 10t23.5 22t19 22.5t15.5 12.5t17.5 1 t20 -4.5t16 -8.5t5.5 -12z" />
<glyph unicode="&#x120;" horiz-adv-x="688" d="M62 60q-33 68 -18 135t63.5 127.5t123 113t159.5 92.5t174 65t167 30t137.5 -11t85.5 -59q8 -14 4 -28t-16 -27.5t-30 -25t-37.5 -20.5t-38 -14t-31.5 -5q-22 0 -36 7t-21 15t-7.5 15.5t4.5 9.5q16 4 46.5 11.5t59.5 18.5t47.5 25.5t9.5 34.5q-7 14 -35 17.5t-63 0 t-71.5 -11.5t-61.5 -16q-61 -19 -133.5 -49.5t-143.5 -69.5t-135.5 -84t-110 -93t-66 -96.5t-4.5 -94.5q9 -25 31.5 -38t53 -17t66.5 0t70.5 14.5t65.5 26t53 33.5q18 30 38.5 59.5t41.5 54.5t42 45.5t40 32.5q10 7 23 8.5t23 -1t15.5 -7.5t2.5 -9q-44 -60 -81.5 -114.5 t-70 -110t-61.5 -115t-57 -129.5q-3 -7 -10 -4t-14 12.5t-12 24.5t-4 33q3 70 37 136q-38 -18 -85 -26t-92.5 -3t-82.5 25t-55 56zM844 740q4 0 13 -4t18 -10t16 -13t7 -12q1 -13 -5 -24.5t-15.5 -20t-19.5 -13t-16 -2.5q-5 1 -13.5 5.5t-16 11t-13 13.5t-5.5 13 q0 7 4.5 16.5t12 18t16.5 15t17 6.5z" />
<glyph unicode="&#x121;" horiz-adv-x="271" d="M280 252q7 6 13.5 6.5t10 -2.5t3 -9t-7.5 -14q-4 -5 -22 -20.5t-46 -41t-63 -59.5t-73 -74q-45 -48 -74 -94.5t-48 -84.5t-30.5 -63.5t-20.5 -29.5t-23.5 -4.5t-26.5 3t-17.5 11t3.5 21.5q7 9 26.5 41t47 77t60.5 100t69 111q-12 -2 -25 0.5t-24.5 9t-20 17.5t-11.5 26 q-5 19 6 42t28.5 43t36.5 35t31 17q9 1 20 -2.5t22 -9.5t19.5 -14.5t13.5 -18.5q15 22 23 24q6 2 15.5 -1t18 -8.5t14.5 -13t6 -14.5q-1 -8 -14 -24.5t-34 -40.5t-46.5 -55.5t-51.5 -70.5q3 3 22.5 24t48 49.5t61 58.5t60.5 53zM136 244q2 4 0 9q-4 10 -13 7.5t-20 -12.5 t-22 -24.5t-19.5 -29t-12.5 -26.5t0 -16q5 -5 18 4.5t27 22.5zM199 463q4 0 13 -4t18 -10t16 -13t7 -12q2 -13 -4 -24.5t-15.5 -20t-19.5 -13t-16 -2.5q-5 1 -13.5 5.5t-16 11t-13 13.5t-5.5 13q0 7 4.5 16.5t12 18t16 15t16.5 6.5z" />
<glyph unicode="&#x122;" horiz-adv-x="688" d="M62 60q-33 68 -18 135t63.5 127.5t123 113t159.5 92.5t174 65t167 30t137.5 -11t85.5 -59q8 -14 4 -28t-16 -27.5t-30 -25t-37.5 -20.5t-38 -14t-31.5 -5q-22 0 -36 7t-21 15t-7.5 15.5t4.5 9.5q16 4 46.5 11.5t59.5 18.5t47.5 25.5t9.5 34.5q-7 14 -35 17.5t-63 0 t-71.5 -11.5t-61.5 -16q-61 -19 -133.5 -49.5t-143.5 -69.5t-135.5 -84t-110 -93t-66 -96.5t-4.5 -94.5q9 -25 31.5 -38t53 -17t66.5 0t70.5 14.5t65.5 26t53 33.5q18 30 38.5 59.5t41.5 54.5t42 45.5t40 32.5q10 7 23 8.5t23 -1t15.5 -7.5t2.5 -9q-44 -60 -81.5 -114.5 t-70 -110t-61.5 -115t-57 -129.5q-3 -7 -10 -4t-14 12.5t-12 24.5t-4 33q3 70 37 136q-38 -18 -85 -26t-92.5 -3t-82.5 25t-55 56zM115 -182q-10 -7 -20.5 -2.5t-8.5 18.5q1 6 8.5 25.5t17.5 41t20.5 38.5t17.5 19q7 1 17 -2.5t19 -10t14.5 -14t4.5 -13.5q0 -6 -11.5 -20.5 t-27 -31t-30.5 -30.5t-21 -18z" />
<glyph unicode="&#x123;" horiz-adv-x="271" d="M280 252q7 6 13.5 6.5t10 -2.5t3 -9t-7.5 -14q-4 -5 -22 -20.5t-46 -41t-63 -59.5t-73 -74q-45 -48 -74 -94.5t-48 -84.5t-30.5 -63.5t-20.5 -29.5t-23.5 -4.5t-26.5 3t-17.5 11t3.5 21.5q7 9 26.5 41t47 77t60.5 100t69 111q-12 -2 -25 0.5t-24.5 9t-20 17.5t-11.5 26 q-5 19 6 42t28.5 43t36.5 35t31 17q9 1 20 -2.5t22 -9.5t19.5 -14.5t13.5 -18.5q15 22 23 24q6 2 15.5 -1t18 -8.5t14.5 -13t6 -14.5q-1 -8 -14 -24.5t-34 -40.5t-46.5 -55.5t-51.5 -70.5q3 3 22.5 24t48 49.5t61 58.5t60.5 53zM136 244q2 4 0 9q-4 10 -13 7.5t-20 -12.5 t-22 -24.5t-19.5 -29t-12.5 -26.5t0 -16q5 -5 18 4.5t27 22.5zM232 492q10 6 20 1.5t8 -18.5q-1 -6 -8.5 -25.5t-17 -40.5t-20 -38.5t-17.5 -18.5q-7 -2 -17 2t-19 10.5t-14.5 14t-4.5 12.5q0 6 11.5 21t27 31.5t30.5 30.5t21 18z" />
<glyph unicode="&#x124;" horiz-adv-x="920" d="M792 283q32 44 70.5 93t76.5 94t71.5 81.5t55.5 55.5q9 9 30 12t40.5 1t30.5 -9t1 -19q-63 -71 -136.5 -145t-140 -154t-117.5 -166.5t-70 -182.5q-1 -6 -14 -13t-28 -8.5t-27 5.5t-12 28q0 36 14 78.5t35.5 84t46.5 77.5t47 60q-130 -25 -255 -52.5t-253 -55.5 q-30 -53 -53.5 -84t-41 -44.5t-28.5 -10.5t-17 17q-2 6 5 19.5t17.5 29.5t20.5 31t15 24q-9 -2 -22.5 -6t-27 -8.5t-26.5 -9.5t-22 -9q-7 -3 -5.5 9t10 27.5t23 30t34.5 16.5l63 6q25 39 50.5 82t53 85.5t58 83t67.5 73.5q8 7 22.5 12.5t31.5 9t32.5 4.5t25.5 -1.5t11 -8.5 t-11 -16q-24 -19 -57 -53t-68 -77t-69.5 -90.5t-60.5 -92.5q135 22 256.5 42t246.5 44zM697 550q1 7 17.5 21t37.5 28.5t40.5 25t27.5 10.5q12 0 23 -10t19.5 -24t13.5 -29t4 -25q-1 -5 -6.5 -8.5t-12.5 -5.5t-14.5 -2t-11.5 3q-5 4 -3.5 10.5t4.5 14.5t6 16.5t2 17.5 q-10 -8 -22.5 -19t-24.5 -21t-23 -18t-18 -9q-7 -2 -17.5 -1t-20 4.5t-16 8.5t-5.5 12z" />
<glyph unicode="&#x125;" horiz-adv-x="320" d="M443 619q5 -15 -11.5 -41.5t-46.5 -59.5t-70 -70.5t-84 -75t-88.5 -72.5t-81.5 -62q-9 -16 -14 -27q-5 -10 -6.5 -16t3.5 -1q6 5 24 21.5t39 35t41.5 35t32.5 21.5q11 5 21 1t18 -12.5t13 -18t7 -15.5q2 -7 -10.5 -23t-27 -33.5t-25 -31.5t-4.5 -17q4 -1 16.5 4.5t29 15 t35.5 22t36 24t30 21t18 14.5q17 13 27.5 6.5t0.5 -19.5q-5 -6 -20.5 -23t-37 -36.5t-46 -36t-46.5 -22.5q-29 -7 -49.5 -0.5t-32.5 19.5t-16.5 29.5t0.5 30.5q-15 -14 -29 -25q-12 -11 -24 -21t-19 -16q-7 -7 -19.5 -11.5t-26 -5t-24 4t-12.5 16.5t15 53t47.5 96 t70.5 117.5t82.5 117.5t84 95t74.5 51q10 4 25.5 3.5t30.5 -7t28.5 -20t20.5 -35.5zM404 642q-4 5 -18.5 -7t-36 -34.5t-48 -53t-53.5 -63.5q-63 -77 -142 -177q12 10 41 36.5t64 61t72 73t65.5 72.5t45 59t10.5 33zM397 709q1 7 17.5 21t37.5 28.5t40.5 25t27.5 10.5 q12 0 23 -10t19.5 -24t13.5 -28.5t4 -24.5q-1 -5 -6.5 -9t-12.5 -6t-14.5 -1.5t-11.5 3.5q-5 3 -3.5 9.5t4.5 14.5t6 17t2 17q-10 -8 -22.5 -18.5t-24.5 -20.5t-23 -18t-18 -10t-17.5 -1t-20 4.5t-16 8.5t-5.5 12z" />
<glyph unicode="&#x126;" horiz-adv-x="920" d="M544 510q-29 -23 -70.5 -67.5t-83.5 -98.5h113.5t119 0.5t115 1t102.5 1.5q30 39 62 78.5t62 74.5t56.5 63t45.5 44q9 9 30 12t40.5 1t30.5 -9t1 -19q-63 -71 -136.5 -145t-140 -154t-117.5 -166.5t-70 -182.5q-1 -6 -14 -13t-28 -8.5t-27 5.5t-12 28q0 36 14 78.5 t35.5 84t46.5 77.5t47 60q-130 -25 -255 -52.5t-253 -55.5q-30 -53 -53.5 -84t-41 -44.5t-28.5 -10.5t-17 17q-2 6 5 19.5t17.5 29.5t20.5 31t15 24q-9 -2 -22.5 -6t-27 -8.5t-26.5 -9.5t-22 -9q-7 -3 -5.5 9t10 27.5t23 30t34.5 16.5l63 6q20 30 39 62.5t39 65.5h-40 q-27 0 -34 3t2.5 7t33 8.5t55.5 7.5q29 47 61 90.5t73 79.5q8 7 22.5 12.5t31.5 9t32.5 4.5t25.5 -1.5t11 -8.5t-11 -16zM822 323q-14 -2 -28.5 -3t-31.5 -1q-103 -4 -206.5 -5t-188.5 -1q-45 -59 -78 -116q135 22 256.5 42t246.5 44z" />
<glyph unicode="&#x127;" horiz-adv-x="320" d="M443 619q3 -12 -7 -31.5t-29.5 -44t-47.5 -53.5t-61 -59l37 2q16 1 19.5 -2t-3.5 -7.5t-23 -9t-39 -5.5q-5 -1 -9 -1h-8q-53 -47 -109 -92t-102 -78q-9 -16 -14 -27q-5 -10 -6.5 -16t3.5 -1q6 5 24 21.5t39 35t41.5 35t32.5 21.5q11 5 21 1t18 -12.5t13 -18t7 -15.5 q2 -7 -10.5 -23t-27 -33.5t-25 -31.5t-4.5 -17q4 -1 16.5 4.5t29 15t35.5 22t36 24t30 21t18 14.5q17 13 27.5 6.5t0.5 -19.5q-5 -6 -20.5 -23t-37 -36.5t-46 -36t-46.5 -22.5q-29 -7 -49.5 -0.5t-32.5 19.5t-16.5 29.5t0.5 30.5q-15 -14 -29 -25q-12 -11 -24 -21t-19 -16 q-7 -7 -19.5 -11.5t-26 -5t-24 4t-12.5 16.5q-2 8 7 32.5t26.5 59.5t41.5 77.5t52 86.5h-41q-16 0 -17 3.5t8.5 8t27 9t39.5 5.5q28 43 59 84t61 75t58 57.5t52 31.5q10 4 25.5 3.5t30.5 -7t28.5 -20t20.5 -35.5zM404 642q-5 6 -25 -12t-49 -49.5t-62.5 -72t-64.5 -78.5h33 q33 33 65.5 67.5t57 64t38 51t7.5 29.5zM106 307q12 10 41 37t65 62q-8 0 -15 -1t-15 -1q-17 -20 -30 -38t-24 -31q-12 -16 -22 -28z" />
<glyph unicode="&#x128;" horiz-adv-x="566" d="M377 535q24 6 54.5 14t62.5 16.5t63.5 16.5t57 15t42.5 11.5t21 5.5t14 -3.5t19.5 -11.5t14.5 -14t1 -11q-34 -33 -70 -86t-74 -114.5t-78 -126t-81.5 -120.5t-84 -98t-86.5 -58q-29 -11 -56.5 -9.5t-50.5 13t-42 31.5t-32 46q-6 12 0.5 13.5t12.5 -9.5q29 -43 63 -49 t68 10t63.5 45.5t49.5 57.5q43 61 82.5 119.5t77.5 115.5t77 112t80 109q-40 -10 -79 -25t-77 -31t-76.5 -31t-77.5 -25q-29 -7 -33.5 1.5t5.5 22.5t29.5 28t39.5 19zM636 702q11 17 31 33t34 22q14 7 33.5 1.5t26.5 -13.5q7 -9 7.5 -19.5t1.5 -10.5q2 0 14.5 4.5t25.5 28.5 q3 5 8 7t10 1.5t8 -5t2 -11.5q-3 -14 -11 -27.5t-18 -24.5t-20.5 -19t-18.5 -10t-18 -3t-20 -0.5t-19 3.5t-15 9q-4 4 -6.5 10t-4.5 11q-3 6 -4 12q-8 -5 -13.5 -11t-11.5 -11q-7 -6 -13 -6t-10 3.5t-4 10.5t5 15z" />
<glyph unicode="&#x129;" horiz-adv-x="167" d="M168 245q20 18 30 11t-8 -29q-12 -15 -29 -31.5t-34.5 -31t-32.5 -25t-23 -12.5q-11 -1 -25.5 4t-28 15t-22 24.5t-6.5 32.5q2 17 9.5 37.5t17.5 37.5t20 28t18 10q7 -2 15 -5.5t14.5 -8t10.5 -10.5t3 -14t-9 -23.5t-16 -31.5t-14 -29t-2 -16q3 -2 14.5 2.5t27 13.5 t34 22t36.5 29zM37 409q11 17 31 33t34 22q7 3 16 3.5t18 -2t16 -6t10 -7.5q8 -9 8 -19.5t2 -10.5q1 0 13.5 5t25.5 28q3 5 8 7t10 1.5t8 -4.5t2 -11q-3 -14 -11 -27.5t-18 -25t-20.5 -19.5t-17.5 -10q-16 -5 -38.5 -3.5t-33.5 13.5q-4 4 -7 9.5t-5 10.5q-3 6 -4 12 q-8 -5 -13.5 -10.5l-11.5 -11.5q-7 -6 -13 -6t-10 4t-4 10.5t5 14.5z" />
<glyph unicode="&#x12a;" horiz-adv-x="566" d="M377 535q24 6 54.5 14t62.5 16.5t63.5 16.5t57 15t42.5 11.5t21 5.5t14 -3.5t19.5 -11.5t14.5 -14t1 -11q-34 -33 -70 -86t-74 -114.5t-78 -126t-81.5 -120.5t-84 -98t-86.5 -58q-29 -11 -56.5 -9.5t-50.5 13t-42 31.5t-32 46q-6 12 0.5 13.5t12.5 -9.5q29 -43 63 -49 t68 10t63.5 45.5t49.5 57.5q43 61 82.5 119.5t77.5 115.5t77 112t80 109q-40 -10 -79 -25t-77 -31t-76.5 -31t-77.5 -25q-29 -7 -33.5 1.5t5.5 22.5t29.5 28t39.5 19zM664 674q32 0 69.5 0.5t63.5 3.5q10 1 12 -3t-2.5 -9.5t-14 -10.5t-23.5 -7q-41 -5 -82 -5h-63 q-10 0 -10 5t6 10.5t18 10.5t26 5z" />
<glyph unicode="&#x12b;" horiz-adv-x="167" d="M168 245q20 18 30 11t-8 -29q-12 -15 -29 -31.5t-34.5 -31t-32.5 -25t-23 -12.5q-11 -1 -25.5 4t-28 15t-22 24.5t-6.5 32.5q2 17 9.5 37.5t17.5 37.5t20 28t18 10q7 -2 15 -5.5t14.5 -8t10.5 -10.5t3 -14t-9 -23.5t-16 -31.5t-14 -29t-2 -16q3 -2 14.5 2.5t27 13.5 t34 22t36.5 29zM82 416q25 0 53.5 0.5t49.5 3.5q7 1 9 -3t-1.5 -9t-11 -10t-18.5 -7q-32 -5 -64 -5h-49q-8 0 -8 4.5t5.5 10.5t14.5 10.5t20 4.5z" />
<glyph unicode="&#x12e;" horiz-adv-x="566" d="M377 535q24 6 54.5 14t62.5 16.5t63.5 16.5t57 15t42.5 11.5t21 5.5t14 -3.5t19.5 -11.5t14.5 -14t1 -11q-34 -33 -70 -85.5t-73.5 -114t-77.5 -126t-81 -120.5t-84 -98t-87 -58q-8 -5 -24.5 -13.5t-32 -18.5t-25.5 -21t-6 -21q3 -7 8 -6.5t10.5 5t10.5 10.5t7 10 q3 5 10 3t13.5 -8t11 -15t1.5 -17t-14 -18t-26 -13.5t-31 2.5t-30 29q-7 12 -4.5 23.5t10.5 22t20.5 20t26.5 17.5q-38 4 -69 27.5t-49 61.5q-6 12 0.5 13.5t12.5 -9.5q29 -43 63 -49t68 10t63.5 45.5t49.5 57.5q43 61 82.5 119.5t77.5 115.5t77 112t80 109q-40 -10 -79 -25 t-77 -31t-76.5 -31t-77.5 -25q-29 -7 -33.5 1.5t5.5 22.5t29.5 28t39.5 19z" />
<glyph unicode="&#x12f;" horiz-adv-x="167" d="M72 127q-9 -5 -25.5 -13.5t-32.5 -18.5t-26 -21t-6 -21q3 -7 8 -6.5t10.5 5t10.5 10.5t7 10q3 5 10 2.5t13.5 -8.5t11 -14.5t1.5 -16.5t-14 -18t-25.5 -14t-31 2t-30.5 30q-9 16 -2.5 30.5t21 27.5t33 23t33.5 17q-20 8 -35.5 26t-13.5 44q2 17 9.5 37.5t17.5 37.5t20 28 t18 10q7 -2 15 -5.5t14.5 -8t10.5 -10.5t3 -14t-9 -23.5t-16 -31.5t-14 -29t-2 -16q3 -2 14.5 2.5t27 13.5t34 22t36.5 29q20 18 30 11t-8 -29q-11 -14 -27.5 -30t-33.5 -30.5t-32 -25.5t-24 -14h-1zM130 343q-6 0 -15 3t-16.5 8t-12 11.5t-3.5 13.5q1 6 5.5 16t10.5 19.5 t13.5 16.5t14.5 9q7 1 17 -2.5t19 -10t14.5 -14t4.5 -12.5q0 -6 -6 -15.5t-14 -18.5t-17 -16t-15 -8z" />
<glyph unicode="&#x130;" horiz-adv-x="566" d="M377 535q24 6 54.5 14t62.5 16.5t63.5 16.5t57 15t42.5 11.5t21 5.5t14 -3.5t19.5 -11.5t14.5 -14t1 -11q-34 -33 -70 -86t-74 -114.5t-78 -126t-81.5 -120.5t-84 -98t-86.5 -58q-29 -11 -56.5 -9.5t-50.5 13t-42 31.5t-32 46q-6 12 0.5 13.5t12.5 -9.5q29 -43 63 -49 t68 10t63.5 45.5t49.5 57.5q43 61 82.5 119.5t77.5 115.5t77 112t80 109q-40 -10 -79 -25t-77 -31t-76.5 -31t-77.5 -25q-29 -7 -33.5 1.5t5.5 22.5t29.5 28t39.5 19zM736 732q4 0 13 -4t18 -10t16 -13t7 -13q1 -13 -5 -24.5t-15.5 -19.5t-19.5 -12.5t-16 -3.5q-5 1 -13.5 6 t-16 11.5t-13 13.5t-5.5 13q0 7 4.5 16.5t12 18t16.5 15t17 6.5z" />
<glyph unicode="&#x131;" horiz-adv-x="167" d="M168 245q20 18 30 11t-8 -29q-12 -15 -29 -31.5t-34.5 -31t-32.5 -25t-23 -12.5q-11 -1 -25.5 4t-28 15t-22 24.5t-6.5 32.5q2 17 9.5 37.5t17.5 37.5t20 28t18 10q7 -2 15 -5.5t14.5 -8t10.5 -10.5t3 -14t-9 -23.5t-16 -31.5t-14 -29t-2 -16q3 -2 14.5 2.5t27 13.5 t34 22t36.5 29z" />
<glyph unicode="&#x134;" horiz-adv-x="821" d="M377 350q75 42 162.5 85t179 83t182.5 74t174 58q26 7 26 -0.5t-14.5 -21.5t-38 -30.5t-45.5 -27.5q-56 -63 -109 -139.5t-107 -155t-111.5 -153t-123 -132t-140.5 -92.5t-165 -35q-36 0 -71.5 10.5t-63 30t-42.5 47t-10 60.5q2 14 14.5 18.5t26 1.5t23.5 -11.5t7 -19.5 q-8 -31 1 -53t30 -34.5t52 -15t66 4.5t72 24.5t70 44.5q71 58 131.5 125t116 138.5t108.5 144.5t110 144q-31 -13 -76.5 -34.5t-98.5 -47.5t-109 -54.5t-109 -54.5t-98.5 -47.5t-76.5 -33.5q-8 -4 -7.5 7t8 28t22 35t34.5 29zM925 692q1 5 9 13.5t20 18t26 19t27.5 17.5 t24.5 13t16 5q12 0 23 -10t19.5 -24t13.5 -29t4 -25q-1 -5 -6.5 -9t-12.5 -6t-14.5 -1.5t-11.5 3.5q-5 3 -3.5 9.5t4.5 14.5t6 17t2 18q-10 -8 -22.5 -19t-24.5 -21t-23 -18t-18 -10t-17.5 -0.5t-20 4.5t-16 8t-5.5 12z" />
<glyph unicode="&#x135;" horiz-adv-x="136" d="M145 252q14 12 23 4.5t-4 -23.5q-3 -5 -21.5 -20.5t-46 -41t-63 -59.5t-73.5 -74q-45 -48 -74.5 -94.5t-48 -84.5t-30 -63.5t-21.5 -29.5q-8 -4 -21 -5.5t-24.5 1.5t-17 11.5t0.5 23.5t30.5 57.5t57.5 97t70.5 114.5t70.5 110t58 83.5t32 35.5q6 2 15 0t17.5 -6t14 -9.5 t5.5 -11.5q0 -7 -12.5 -24.5t-33 -44t-45.5 -60t-51 -72.5q3 3 23 24t48.5 49.5t60.5 58.5t60 53zM29 383q1 7 17.5 21t37 28.5t40 25t27.5 10.5q12 0 23 -10t20 -24t13.5 -29t3.5 -25q0 -5 -5.5 -8.5t-12.5 -5.5t-14.5 -2t-11.5 3q-5 4 -3.5 10.5t4.5 14.5t5.5 16.5 t1.5 17.5q-9 -8 -21.5 -18.5t-24.5 -20.5t-23 -18t-18 -10t-17.5 -1t-20.5 4.5t-16.5 8.5t-4.5 12z" />
<glyph unicode="&#x136;" horiz-adv-x="685" d="M212 181q36 11 90 7.5t115.5 -16.5t126.5 -32.5t123.5 -40t105.5 -39.5t73 -32q7 -4 10.5 -8.5t0.5 -6.5t-14 -0.5t-33 10.5q-43 17 -93.5 34.5t-105.5 33t-111.5 28t-110.5 19.5t-103 7.5t-89 -7.5q-10 -2 -24.5 4t-23.5 14q-5 -11 -12 -25.5t-15 -28.5t-16 -25.5 t-14 -16.5q-9 -8 -22.5 -13t-25 -7.5t-19 -1t-5.5 7.5q19 46 45.5 110t59.5 130t72.5 125.5t86.5 96.5q17 13 34 12.5t30 -6.5t19 -15t0 -14q-23 -21 -47.5 -48.5t-48.5 -59.5t-44.5 -67.5t-35.5 -71.5q40 24 87 49t95.5 49.5t96.5 48t90 43.5q81 40 162 84.5t165 81.5 q8 4 9.5 -7.5t-3.5 -30t-16.5 -39.5t-29.5 -36q-25 -21 -67 -42t-95 -44t-114 -47t-123.5 -50.5t-123 -55.5t-112.5 -61zM233 -83q-10 -6 -20.5 -1.5t-8.5 18.5q1 6 8.5 25.5t17.5 41t20.5 38.5t17.5 19q7 1 17 -3t18.5 -10.5t14.5 -14t5 -12.5q0 -6 -11.5 -21t-27 -31.5 t-30.5 -30.5t-21 -18z" />
<glyph unicode="&#x137;" horiz-adv-x="275" d="M239 268q-1 -5 -10.5 -9.5t-24.5 -9t-33.5 -9.5t-38.5 -12q-5 -11 -8.5 -22t1.5 -19q2 -5 24.5 2.5t50 19.5t53 24t33.5 18q18 13 29 12.5t-3 -21.5q-9 -10 -28.5 -25.5t-43 -31.5t-46.5 -30t-38 -21t-30 -3.5t-27.5 12t-21.5 17.5t-11 14q-3 4 -2.5 9t1.5 10 q-17 -11 -29.5 -27.5t-18.5 -37.5q-7 -6 -16 -5t-17.5 6t-14 12.5t-5.5 14.5q0 9 11 35t29.5 61.5t43.5 79t54 88t60 87.5t62 78t60 60t54 33q11 4 26 3.5t30.5 -7t28.5 -20t20 -35.5q4 -15 -12 -41.5t-46 -59.5t-70 -70.5t-84 -75t-88 -72.5t-81 -62l-18 -39q35 28 66 52 q26 20 51.5 37.5t36.5 21.5q7 1 14.5 -3t14 -10.5t10 -14.5t2.5 -14zM406 642q-4 5 -19 -7t-37 -34.5t-48.5 -53t-53.5 -63.5q-63 -77 -142 -177q13 10 41.5 36.5t63.5 61t72 73t66 72.5t45.5 59t11.5 33zM-34 -61q-10 -7 -20 -2t-8 19q1 6 8.5 25.5t17 40.5t20 38t17.5 19 q7 1 17 -2.5t19 -10t14.5 -14t4.5 -12.5q0 -6 -11.5 -21t-27 -31.5t-30.5 -30.5t-21 -18z" />
<glyph unicode="&#x138;" horiz-adv-x="275" d="M239 268q-1 -5 -10.5 -9.5t-24.5 -9t-33.5 -9.5t-38.5 -12q-5 -11 -8.5 -22t1.5 -19q2 -5 24.5 2.5t50 19.5t53 24t33.5 18q18 13 29 12.5t-3 -21.5q-9 -10 -28.5 -25.5t-43 -31.5t-46.5 -30t-38 -21t-30 -3.5t-27.5 12t-21.5 17.5t-11 14q-3 4 -2.5 9t1.5 10 q-17 -11 -29.5 -27.5t-18.5 -37.5q-7 -6 -16 -5t-17.5 6t-14 12.5t-5.5 14.5q0 19 14 45.5t31.5 51.5t34 44t22.5 22q9 5 23 10.5t27 8t21.5 1.5t5.5 -10q-2 -4 -11 -15t-23 -28t-31 -39t-34 -48q35 28 66 52q26 20 51.5 37.5t36.5 21.5q7 1 14.5 -3t14 -10.5t10 -14.5 t2.5 -14z" />
<glyph unicode="&#x139;" horiz-adv-x="630" d="M217 130q83 16 169.5 15t165.5 -19t144 -51.5t104 -81.5q17 -21 16 -32t-16 5q-47 55 -123 90.5t-167 46.5t-190 -5.5t-192 -65.5q-12 -7 -24.5 -14t-25 -10.5t-24.5 -1.5t-24 13q-11 9 -12.5 15.5t2 12.5t11.5 12t17 12q45 40 90.5 91.5t92.5 105.5t97.5 108t105 100 t115 80t128.5 49q36 7 65 4t47 -10t23 -13.5t-8 -5.5q-63 2 -120 -21t-109.5 -61t-100.5 -87t-92 -100t-85.5 -98.5t-79.5 -82.5zM791 670q5 4 16 15t23.5 23t25.5 22t22 12q10 2 20.5 -5t18.5 -17.5t11 -21.5t-3 -18t-20.5 -13.5t-32.5 -12t-36 -10l-30 -7.5t-17.5 0.5 t-7 9t1 12t8.5 11.5z" />
<glyph unicode="&#x13a;" horiz-adv-x="199" d="M204 247q23 14 28 8t-11 -22q-17 -16 -36 -32.5t-37.5 -31t-36.5 -24.5t-33 -13q-13 -2 -30 -0.5t-32 8.5t-25 19.5t-10 32.5q0 12 18.5 50t49 88t69 106.5t80 106.5t81.5 87t73 48q10 4 28 3t35 -6.5t29.5 -16t12.5 -24.5q0 -16 -18 -44t-48 -62.5t-69 -74t-82 -78.5 t-86 -74.5t-80 -62.5q-11 -15 -18 -28q-6 -11 -9.5 -21.5t1.5 -14.5q3 -3 24 6t46.5 22t50 26.5t35.5 18.5zM406 629q-4 5 -18.5 -6t-35.5 -33t-46 -51.5t-51 -60.5q-61 -74 -136 -171q13 10 41 35t61.5 58.5t69 70t63 69t43 57t9.5 32.5zM413 742q5 4 16 15t23.5 23 t25.5 22t22 12q10 2 20.5 -5t18.5 -17.5t11 -21.5t-3 -18t-20.5 -13.5t-32.5 -12t-36 -10l-30 -7.5t-17.5 0.5t-7 9t1 12t8.5 11.5z" />
<glyph unicode="&#x13b;" horiz-adv-x="630" d="M217 130q83 16 169.5 15t165.5 -19t144 -51.5t104 -81.5q17 -21 16 -32t-16 5q-47 55 -123 90.5t-167 46.5t-190 -5.5t-192 -65.5q-12 -7 -24.5 -14t-25 -10.5t-24.5 -1.5t-24 13q-11 9 -12.5 15.5t2 12.5t11.5 12t17 12q45 40 90.5 91.5t92.5 105.5t97.5 108t105 100 t115 80t128.5 49q36 7 65 4t47 -10t23 -13.5t-8 -5.5q-63 2 -120 -21t-109.5 -61t-100.5 -87t-92 -100t-85.5 -98.5t-79.5 -82.5zM271 -89q-10 -6 -20.5 -1.5t-8.5 18.5q1 6 8.5 25.5t17.5 41t20.5 38.5t17.5 19q7 1 17 -3t19 -10.5t14.5 -14t4.5 -12.5q0 -6 -11.5 -21 t-27 -31.5t-30.5 -30.5t-21 -18z" />
<glyph unicode="&#x13c;" horiz-adv-x="199" d="M204 247q23 14 28 8t-11 -22q-17 -16 -36 -32.5t-37.5 -31t-36.5 -24.5t-33 -13q-13 -2 -30 -0.5t-32 8.5t-25 19.5t-10 32.5q0 12 18.5 50t49 88t69 106.5t80 106.5t81.5 87t73 48q10 4 28 3t35 -6.5t29.5 -16t12.5 -24.5q0 -16 -18 -44t-48 -62.5t-69 -74t-82 -78.5 t-86 -74.5t-80 -62.5q-11 -15 -18 -28q-6 -11 -9.5 -21.5t1.5 -14.5q3 -3 24 6t46.5 22t50 26.5t35.5 18.5zM406 629q-4 5 -18.5 -6t-35.5 -33t-46 -51.5t-51 -60.5q-61 -74 -136 -171q13 10 41 35t61.5 58.5t69 70t63 69t43 57t9.5 32.5zM-85 -50q-10 -7 -20.5 -2.5 t-8.5 18.5q1 6 8.5 25.5t17.5 41t20.5 38.5t17.5 19q7 1 17 -2.5t18.5 -10t14.5 -14t5 -13.5q0 -6 -11.5 -20.5t-27 -31t-30.5 -30.5t-21 -18z" />
<glyph unicode="&#x13d;" horiz-adv-x="630" d="M217 130q83 16 169.5 15t165.5 -19t144 -51.5t104 -81.5q17 -21 16 -32t-16 5q-47 55 -123 90.5t-167 46.5t-190 -5.5t-192 -65.5q-12 -7 -24.5 -14t-25 -10.5t-24.5 -1.5t-24 13q-11 9 -12.5 15.5t2 12.5t11.5 12t17 12q45 40 90.5 91.5t92.5 105.5t97.5 108t105 100 t115 80t128.5 49q36 7 65 4t47 -10t23 -13.5t-8 -5.5q-63 2 -120 -21t-109.5 -61t-100.5 -87t-92 -100t-85.5 -98.5t-79.5 -82.5zM647 404q-10 -6 -20.5 -1.5t-8.5 18.5q1 6 8.5 25.5t17.5 41t20.5 38.5t17.5 19q7 1 17 -3t18.5 -10.5t14.5 -13.5t5 -13q0 -6 -11.5 -21 t-27 -31.5t-30.5 -30.5t-21 -18z" />
<glyph unicode="&#x13e;" horiz-adv-x="197" d="M293 355q-11 -2 -19 7t0 20q3 5 18 20t32.5 30.5t34 26.5t23.5 10q7 -2 14.5 -9.5t13 -16.5t7.5 -18.5t-1 -14.5q-2 -5 -19 -14t-37.5 -17.5t-40 -15.5t-26.5 -8zM204 247q23 14 28 8t-11 -22q-17 -16 -36 -32.5t-37.5 -31t-36.5 -24.5t-33 -13q-13 -2 -30 -0.5t-32 8.5 t-25 19.5t-10 32.5q0 12 18.5 50t49 88t69 106.5t80 106.5t81.5 87t73 48q10 4 28 3t35 -6.5t29.5 -16t12.5 -24.5q0 -16 -18 -44t-48 -62.5t-69 -74t-82 -78.5t-86 -74.5t-80 -62.5q-11 -15 -18 -28q-6 -11 -9.5 -21.5t1.5 -14.5q3 -3 24 6t46.5 22t50 26.5t35.5 18.5z M406 629q-4 5 -18.5 -6t-35.5 -33t-46 -51.5t-51 -60.5q-61 -74 -136 -171q13 10 41 35t61.5 58.5t69 70t63 69t43 57t9.5 32.5z" />
<glyph unicode="&#x141;" horiz-adv-x="630" d="M217 130q83 16 169.5 15t165.5 -19t144 -51.5t104 -81.5q17 -21 16 -32t-16 5q-47 55 -123 90.5t-167 46.5t-190 -5.5t-192 -65.5q-12 -7 -24.5 -14t-25 -10.5t-24.5 -1.5t-24 13q-11 9 -12.5 15.5t2 12.5t11.5 12t17 12q35 32 71 71t73 81q-8 -2 -13 -3.5t-7 -1.5 q-8 -2 -9 3t2 11.5t10.5 13.5t17.5 10l35 9q48 55 98 109.5t105.5 100.5t116 80.5t129.5 49.5q36 7 65 4t47 -10t23 -13.5t-8 -5.5q-63 1 -120.5 -22t-110 -61t-100 -87t-91.5 -99q26 8 46 14.5t27 9.5t9.5 -0.5t1 -9.5t-7.5 -13t-16 -11q-11 -5 -38 -14t-60 -19 q-34 -39 -65.5 -74.5t-61.5 -63.5z" />
<glyph unicode="&#x142;" horiz-adv-x="199" d="M204 247q23 14 28 8t-11 -22q-17 -16 -36 -32.5t-37.5 -31t-36.5 -24.5t-33 -13q-13 -2 -30 -0.5t-32 8.5t-25 19.5t-10 32.5q0 10 14 39.5t37 69.5t53 87t64 93q-48 -11 -82 -19t-39 -10q-8 -2 -9 3t2 11.5t10.5 13.5t17.5 10q8 2 45 11t86 21q45 57 89.5 100t82.5 56 q10 4 28 3t35 -6.5t29.5 -16t12.5 -24.5q0 -17 -20 -48l29 9q7 3 9.5 0t0.5 -9t-8 -13t-16 -11q-11 -6 -45 -15q-29 -36 -69.5 -77.5t-85.5 -83.5t-91.5 -80.5t-86.5 -67.5q-11 -15 -18 -28q-6 -11 -9.5 -21.5t1.5 -14.5q3 -3 24 6t46.5 22t50 26.5t35.5 18.5zM286 515 q-30 -35 -60 -72t-54 -67q-28 -35 -53 -69q12 9 38.5 33t59 55.5t67 67t62.5 67.5zM406 629q-6 6 -29 -15t-55 -57l57 14q16 21 24 36t3 22z" />
<glyph unicode="&#x143;" horiz-adv-x="845" d="M292 502q5 2 12 -2q6 45 16.5 93.5t27 86t40.5 56.5t58 6q-26 -103 -48 -207t-30 -210q-1 -21 -2 -49.5t2 -58t11.5 -57.5t24.5 -49t41 -31.5t63 -5.5q42 6 82 46.5t78 99.5t73.5 129.5t69.5 138t66.5 124t64.5 88.5q21 21 47 29t47.5 8.5t34 -4.5t5.5 -11 q-45 -37 -86.5 -104t-83 -145.5t-85.5 -158.5t-94 -143t-109 -99.5t-130 -27.5q-43 5 -75 26.5t-54.5 53t-36.5 71t-21 80.5t-8.5 81t2.5 74v4q-29 -41 -60.5 -87.5t-60 -95t-51 -97.5t-34.5 -95q0 -14 -10.5 -12t-22 15.5t-18 37.5t1.5 56q5 23 19 55t34 68t44 72t50 66.5 t53 53t52 31.5zM610 666q5 4 16 15t23.5 23t25.5 22t22 12t20 -4.5t19 -17t11 -21.5t-3 -18t-21 -13.5t-33 -12t-35.5 -10t-29.5 -7.5t-17.5 0t-7 8.5t1 12t8.5 11.5z" />
<glyph unicode="&#x144;" horiz-adv-x="317" d="M28 289q6 6 14.5 4.5t16 -7t13.5 -14t7 -15.5q2 -7 -0.5 -17.5t-7 -21t-8.5 -19t-5 -12.5q5 3 23 20.5t38 37.5t37.5 36t22.5 18q4 2 14 0.5t20 -6t18 -11t10 -14.5t-7.5 -26t-20.5 -37.5t-19.5 -35t-3.5 -18.5t22 8t37.5 27t38.5 32.5t26 23.5t13.5 7.5t8.5 -3.5 t2.5 -10t-4.5 -13q-5 -7 -21 -24.5t-35.5 -37t-37.5 -35.5t-28 -19q-15 -6 -33.5 -3.5t-35.5 9t-28.5 17t-12.5 21.5q-1 4 3.5 16t10.5 24t11.5 22t5.5 11l-14.5 -15.5t-33 -33.5t-37 -33t-26.5 -15q-13 0 -27 8.5t-17 25.5q-1 7 2.5 24.5t10 37t16 38t21.5 28.5zM119 395 q5 4 16 15t23.5 23t25.5 22t22 12q10 2 20.5 -4.5t18.5 -17t11 -21.5t-3 -18t-20.5 -13.5t-32.5 -12.5t-36 -10.5l-30 -7.5t-17.5 0.5t-7 9t1 12t8.5 11.5z" />
<glyph unicode="&#x145;" horiz-adv-x="845" d="M292 502q5 2 12 -2q6 45 16.5 93.5t27 86t40.5 56.5t58 6q-26 -103 -48 -207t-30 -210q-1 -21 -2 -49.5t2 -58t11.5 -57.5t24.5 -49t41 -31.5t63 -5.5q42 6 82 46.5t78 99.5t73.5 129.5t69.5 138t66.5 124t64.5 88.5q21 21 47 29t47.5 8.5t34 -4.5t5.5 -11 q-45 -37 -86.5 -104t-83 -145.5t-85.5 -158.5t-94 -143t-109 -99.5t-130 -27.5q-43 5 -75 26.5t-54.5 53t-36.5 71t-21 80.5t-8.5 81t2.5 74v4q-29 -41 -60.5 -87.5t-60 -95t-51 -97.5t-34.5 -95q0 -14 -10.5 -12t-22 15.5t-18 37.5t1.5 56q5 23 19 55t34 68t44 72t50 66.5 t53 53t52 31.5zM268 -76q-11 -6 -21 -1.5t-8 18.5q1 6 8.5 25.5t17 41t20 38.5t17.5 19q7 1 17 -3t19 -10.5t15 -13.5t5 -13q0 -6 -12 -21t-27 -31.5t-30 -30.5t-21 -18z" />
<glyph unicode="&#x146;" horiz-adv-x="317" d="M28 289q6 6 14.5 4.5t16 -7t13.5 -14t7 -15.5q2 -7 -0.5 -17.5t-7 -21t-8.5 -19t-5 -12.5q5 3 23 20.5t38 37.5t37.5 36t22.5 18q4 2 14 0.5t20 -6t18 -11t10 -14.5t-7.5 -26t-20.5 -37.5t-19.5 -35t-3.5 -18.5t22 8t37.5 27t38.5 32.5t26 23.5t13.5 7.5t8.5 -3.5 t2.5 -10t-4.5 -13q-5 -7 -21 -24.5t-35.5 -37t-37.5 -35.5t-28 -19q-15 -6 -33.5 -3.5t-35.5 9t-28.5 17t-12.5 21.5q-1 4 3.5 16t10.5 24t11.5 22t5.5 11l-14.5 -15.5t-33 -33.5t-37 -33t-26.5 -15q-13 0 -27 8.5t-17 25.5q-1 7 2.5 24.5t10 37t16 38t21.5 28.5zM-7 -76 q-10 -6 -20.5 -1.5t-8.5 18.5q1 6 8.5 25.5t17.5 41t20.5 38.5t17.5 19q7 1 17 -3t18.5 -10.5t14.5 -13.5t5 -13q0 -6 -11.5 -21t-27 -31.5t-30.5 -30.5t-21 -18z" />
<glyph unicode="&#x147;" horiz-adv-x="845" d="M292 502q5 2 12 -2q6 45 16.5 93.5t27 86t40.5 56.5t58 6q-26 -103 -48 -207t-30 -210q-1 -21 -2 -49.5t2 -58t11.5 -57.5t24.5 -49t41 -31.5t63 -5.5q42 6 82 46.5t78 99.5t73.5 129.5t69.5 138t66.5 124t64.5 88.5q21 21 47 29t47.5 8.5t34 -4.5t5.5 -11 q-45 -37 -86.5 -104t-83 -145.5t-85.5 -158.5t-94 -143t-109 -99.5t-130 -27.5q-43 5 -75 26.5t-54.5 53t-36.5 71t-21 80.5t-8.5 81t2.5 74v4q-29 -41 -60.5 -87.5t-60 -95t-51 -97.5t-34.5 -95q0 -14 -10.5 -12t-22 15.5t-18 37.5t1.5 56q5 23 19 55t34 68t44 72t50 66.5 t53 53t52 31.5zM766 710q-2 -7 -18 -21t-37 -28.5t-40.5 -25t-27.5 -10.5q-12 0 -23 10t-19.5 24t-13.5 29t-4 25q0 5 5.5 8.5t13 5.5t15 2t11.5 -3q4 -4 3 -10.5t-4 -14.5t-6 -16.5t-2 -17.5q9 8 21.5 19t25 21t23.5 17.5t18 9.5t17.5 1t20 -4.5t16 -8.5t5.5 -12z" />
<glyph unicode="&#x148;" horiz-adv-x="317" d="M28 289q6 6 14.5 4.5t16 -7t13.5 -14t7 -15.5q2 -7 -0.5 -17.5t-7 -21t-8.5 -19t-5 -12.5q5 3 23 20.5t38 37.5t37.5 36t22.5 18q4 2 14 0.5t20 -6t18 -11t10 -14.5t-7.5 -26t-20.5 -37.5t-19.5 -35t-3.5 -18.5t22 8t37.5 27t38.5 32.5t26 23.5t13.5 7.5t8.5 -3.5 t2.5 -10t-4.5 -13q-5 -7 -21 -24.5t-35.5 -37t-37.5 -35.5t-28 -19q-15 -6 -33.5 -3.5t-35.5 9t-28.5 17t-12.5 21.5q-1 4 3.5 16t10.5 24t11.5 22t5.5 11l-14.5 -15.5t-33 -33.5t-37 -33t-26.5 -15q-13 0 -27 8.5t-17 25.5q-1 7 2.5 24.5t10 37t16 38t21.5 28.5zM281 445 q-2 -7 -18 -21t-37 -28.5t-40.5 -25t-27.5 -10.5q-12 0 -23 10t-19.5 24t-13.5 29t-4 25q1 5 6.5 8.5t12.5 5.5t14.5 2t11.5 -3q4 -4 3 -10.5t-4 -14.5t-6 -16.5t-2 -17.5q10 7 22.5 18t24.5 21t23 18t18 10t17.5 1t20 -4.5t16 -8.5t5.5 -12z" />
<glyph unicode="&#x14a;" horiz-adv-x="845" d="M508 74q42 6 82 46.5t78 99.5t73.5 129.5t69.5 138t66.5 124t64.5 88.5q21 21 47 29t47.5 8.5t34 -4.5t5.5 -11q-30 -25 -58.5 -64t-56.5 -87t-55.5 -101t-56.5 -106.5t-60 -104t-65 -92.5q-48 -68 -105 -131.5t-121.5 -113t-136.5 -79t-152 -29.5q-36 0 -71.5 10.5 t-63 30t-42.5 47t-10 60.5q2 14 14.5 18.5t26 1.5t23 -11.5t6.5 -19.5q-8 -31 1.5 -53t30.5 -34.5t52 -15t66 4.5t72 24.5t70 44.5q35 30 70 59.5t67 61.5h-16.5t-16.5 1q-43 5 -75 26.5t-54.5 53t-36.5 71t-21 80.5t-8.5 81t2.5 74v4q-29 -41 -60.5 -87.5t-60 -95 t-51 -97.5t-34.5 -95q0 -14 -10.5 -12t-22 15.5t-18 37.5t1.5 56q5 23 19 55t34 68t44 72t50 66.5t53 53t52 31.5q5 2 12 -2q6 45 16.5 93.5t27 86t40.5 56.5t58 6q-26 -103 -48 -207t-30 -210q-1 -21 -2 -49.5t2 -58t11.5 -57.5t24.5 -49t41 -31.5t63 -5.5z" />
<glyph unicode="&#x14b;" horiz-adv-x="317" d="M28 289q6 6 14.5 4.5t16 -7t13.5 -14t7 -15.5q2 -7 -0.5 -17.5t-7 -21t-8.5 -19t-5 -12.5q5 3 23 20.5t38 37.5t37.5 36t22.5 18q4 2 12.5 0.5t17.5 -5t16 -10t9 -14.5q2 -5 -4 -21.5t-16 -39t-22.5 -48.5t-25 -50.5t-23 -45t-16.5 -31.5q7 7 22.5 24t34.5 38.5t40 45 t39.5 44.5t32 36t18.5 20q8 7 13.5 7.5t8.5 -3.5t2.5 -10t-4.5 -13q-4 -4 -23 -26t-47.5 -54t-62 -73t-65.5 -83.5t-58.5 -84t-40.5 -75.5q-6 -15 -21.5 -18.5t-32 0t-29.5 12t-14 19.5q-1 3 13.5 32.5t35.5 72t46 91t47 90t36.5 69.5t14.5 29l-14.5 -15.5t-33 -33.5 t-37 -33t-26.5 -15q-13 0 -27 8.5t-17 25.5q-1 7 2.5 24.5t10 37t16 38t21.5 28.5z" />
<glyph unicode="&#x14c;" horiz-adv-x="844" d="M577 624q58 28 105 28t81 -21t53.5 -59.5t23 -88.5t-10 -108t-45.5 -118q-33 -60 -80.5 -112t-106 -92t-124.5 -66t-136 -34q-42 -5 -83.5 3.5t-78 28t-66 49t-48.5 68.5q-24 48 -14.5 99t41.5 100t81 93.5t105 80.5t113.5 61.5t106.5 35.5q8 11 27 23t56 29zM600 575 q17 -3 27.5 -7t10 -9.5t-14.5 -11t-45 -9.5q-40 -6 -77.5 -19.5t-72 -31.5t-66.5 -39t-60 -42q-27 -20 -60 -52.5t-63 -70.5t-51.5 -78.5t-25.5 -78.5t15 -69.5t71 -51.5q62 -24 129 -12.5t131.5 47t123.5 90.5t105.5 119t76 131.5t36.5 128.5q5 46 -7 69.5t-35 31t-53.5 1 t-63.5 -21.5zM570 720h56t57.5 0.5t55.5 1t48 2.5q16 1 19.5 -3t-3 -9.5t-22.5 -11t-39 -6.5q-33 -3 -67.5 -4t-66.5 -1.5t-59 0t-45 0.5q-16 0 -16 5t10.5 10.5t29.5 10.5t42 5z" />
<glyph unicode="&#x14d;" d="M94 316q14 0 25.5 -7t13.5 -19q26 -6 37 -25t9 -43q25 -3 48.5 8t36.5 27q8 9 14.5 12t10.5 1t4 -7.5t-4 -12.5q-16 -27 -46.5 -49t-80.5 -28q-13 -20 -32.5 -36t-46.5 -24q-12 -4 -29.5 0t-34 15t-27.5 28t-8 38q2 20 11.5 41.5t24 39.5t33.5 29.5t41 11.5zM54 151 q5 -8 21 0t31 25q-11 8 -19 21.5t-11 31.5q-17 -23 -24 -45.5t2 -32.5zM89 416q25 0 53.5 0.5t49.5 3.5q7 1 9 -3t-1.5 -9t-11 -10t-18.5 -7q-32 -5 -63.5 -5h-48.5q-8 0 -8 4.5t5 10.5t14 10.5t20 4.5z" />
<glyph unicode="&#x150;" horiz-adv-x="844" d="M577 624q58 28 105 28t81 -21t53.5 -59.5t23 -88.5t-10 -108t-45.5 -118q-33 -60 -80.5 -112t-106 -92t-124.5 -66t-136 -34q-42 -5 -83.5 3.5t-78 28t-66 49t-48.5 68.5q-24 48 -14.5 99t41.5 100t81 93.5t105 80.5t113.5 61.5t106.5 35.5q8 11 27 23t56 29zM600 575 q17 -3 27.5 -7t10 -9.5t-14.5 -11t-45 -9.5q-40 -6 -77.5 -19.5t-72 -31.5t-66.5 -39t-60 -42q-27 -20 -60 -52.5t-63 -70.5t-51.5 -78.5t-25.5 -78.5t15 -69.5t71 -51.5q62 -24 129 -12.5t131.5 47t123.5 90.5t105.5 119t76 131.5t36.5 128.5q5 46 -7 69.5t-35 31t-53.5 1 t-63.5 -21.5zM632 709q6 4 16.5 15t23.5 23t26 22t22 12q13 3 26.5 -9.5t20.5 -27.5q14 13 27.5 24t23.5 13t20.5 -4.5t18.5 -17t11 -21.5t-3 -18t-20.5 -13.5t-32.5 -12t-36 -10l-30 -7.5q-17 -5 -22 3t-2 17q-20 -7 -40.5 -12.5t-33.5 -7.5q-12 -3 -17.5 0t-7 8.5t1 12 t7.5 11.5z" />
<glyph unicode="&#x151;" d="M94 316q14 0 25.5 -7t13.5 -19q26 -6 37 -25t9 -43q25 -3 48.5 8t36.5 27q8 9 14.5 12t10.5 1t4 -7.5t-4 -12.5q-16 -27 -46.5 -49t-80.5 -28q-13 -20 -32.5 -36t-46.5 -24q-12 -4 -29.5 0t-34 15t-27.5 28t-8 38q2 20 11.5 41.5t24 39.5t33.5 29.5t41 11.5zM56 395 q6 4 16.5 15t23.5 23t26 22t22 12q13 2 26.5 -10t20.5 -27q14 12 27.5 23t23.5 14q10 2 20.5 -4.5t18.5 -17t11 -21.5t-3 -18t-20.5 -13.5t-32.5 -12.5t-36 -10.5l-30 -7.5q-17 -5 -22 3.5t-2 17.5q-20 -8 -40.5 -13t-33.5 -8q-12 -3 -17.5 0.5t-7 9t1 12t7.5 11.5zM54 151 q5 -8 21 0t31 25q-11 8 -19 21.5t-11 31.5q-17 -23 -24 -45.5t2 -32.5z" />
<glyph unicode="&#x152;" horiz-adv-x="1217" d="M577 624q48 22 88 26t71.5 -7t54.5 -36t35 -59q88 37 182.5 61.5t177.5 31t145.5 -7t88.5 -52.5q17 -26 12.5 -53.5t-20.5 -51t-39 -40.5t-43 -23q-21 -6 -38.5 -2t-28 12t-14 16.5t4.5 11.5q10 4 26.5 12t34.5 18.5t35 22.5t28.5 24.5t15 24.5t-5.5 23q-13 16 -46 20 t-78.5 -1.5t-100 -19t-111 -31.5t-111.5 -39.5t-101 -42.5q0 -47 -13.5 -99t-42.5 -106q-6 -9 -11 -18.5t-11 -17.5q43 19 81.5 31t70.5 17.5t56 5.5t39 -5q26 -9 12.5 -26t-50 -36t-89.5 -36t-107 -26q-13 -3 -37 -16t-51 -31.5t-54 -41t-46 -44.5t-27.5 -41.5t2.5 -33.5 q13 -18 50.5 -13.5t90 22.5t115 47.5t124.5 62t119 65t99 58.5q10 6 17.5 9.5t10.5 3t0.5 -7t-13.5 -19.5q-14 -17 -52.5 -51t-91.5 -71.5t-116 -74t-126.5 -59.5t-123.5 -27t-106 23q-29 17 -42.5 41.5t-11.5 53.5q-81 -38 -168 -48q-42 -5 -83.5 3.5t-78 28t-66 49 t-48.5 68.5q-24 48 -14.5 99t41.5 100t81 93.5t105 80.5t113.5 61.5t106.5 35.5q8 11 27 23t56 29zM511 227q-10 42 8 84t56.5 81t94.5 75t121 66q0 36 -13.5 54.5t-36 23.5t-51.5 -2t-59 -20l-31 -14q17 -3 27.5 -7t10 -9.5t-14.5 -11t-45 -9.5q-40 -6 -77.5 -19.5 t-72 -31.5t-66.5 -39t-60 -42q-27 -20 -60 -52.5t-63 -70.5t-51.5 -78.5t-25.5 -78.5t15 -69.5t71 -51.5q49 -19 101.5 -15.5t105 24.5t103 56t95.5 80q-31 11 -54 30.5t-28 46.5zM617 174q54 58 94 124t61 130q-32 -17 -73.5 -42.5t-76.5 -56t-55 -63.5t-7 -64 q7 -16 23 -22t34 -6z" />
<glyph unicode="&#x153;" horiz-adv-x="371" d="M372 244q19 14 21 9t-7 -19q-9 -15 -25.5 -35t-36.5 -38t-42 -32t-41 -17q-15 -3 -42 10t-48 35q-13 -14 -29.5 -26t-38.5 -18q-12 -4 -29.5 0t-34 15t-27.5 28t-8 38q2 20 11.5 41.5t24 39.5t33.5 29.5t41 11.5q14 0 25.5 -7t13.5 -19q15 -3 24 -12q17 17 36 26.5 t31 9.5q10 0 21 -5t20.5 -13t15.5 -18.5t5 -21.5q-2 -11 -15.5 -25.5t-29.5 -28.5q-18 -16 -42 -33q22 -6 70.5 14t102.5 61zM54 151q5 -8 21 0t31 25q-11 8 -19 21.5t-11 31.5q-17 -23 -24 -45.5t2 -32.5zM254 263q-4 3 -18 -4.5t-28 -19.5t-24 -26.5t-5 -24.5q6 3 19.5 14 t27 24t22.5 23.5t6 13.5z" />
<glyph unicode="&#x154;" horiz-adv-x="787" d="M485 115l76.5 -9t87 -9.5t88.5 -8.5t82.5 -6t68.5 -2.5t46 2.5q15 3 13 -7.5t-16 -24t-38 -25.5t-53 -12q-58 0 -107 10t-97 23.5t-97.5 26.5t-107.5 19q-20 -7 -43 -12t-47 -6.5t-48 2.5t-45 16q-7 -8 -17.5 -20.5t-20.5 -27.5t-17.5 -30t-8.5 -28q-1 -11 -12.5 -8.5 t-22.5 15t-16 34.5t7 50q8 20 29 46t48 54t58 56t59.5 53t52.5 44t37 30q15 12 35.5 15.5t37.5 2t25 -7.5t-2 -14q-21 -16 -53.5 -44.5t-68.5 -63t-71.5 -71t-62.5 -67.5q38 2 93 20.5t113.5 49.5t114 72t94.5 88.5t54.5 99.5t-5.5 104q-15 36 -47 52t-75.5 16t-95 -13.5 t-104.5 -35t-104.5 -49.5t-95 -57t-75.5 -57t-47 -50q-4 -5 -11.5 6t-10 31t5 45.5t34.5 48.5q40 35 93 67.5t112.5 58t122 39.5t121.5 11.5t110.5 -24.5t89.5 -70q41 -52 48 -102.5t-10.5 -97t-53 -87.5t-78.5 -73.5t-89 -55t-83 -32.5zM515 743q5 4 16 15t23.5 23t25.5 22 t22 12q10 2 20.5 -4.5t18.5 -17t11 -21.5t-3 -18t-20.5 -13.5t-32.5 -12.5t-36 -10.5l-30 -7.5t-17.5 0.5t-7 9t1 12t8.5 11.5z" />
<glyph unicode="&#x155;" horiz-adv-x="221" d="M46 262q4 -4 12 -3.5t16.5 3.5t16 7t10.5 7q2 4 10.5 4t17.5 -3.5t16.5 -10t9.5 -15.5q1 -8 -7.5 -23t-18 -29.5t-14.5 -25.5t3 -11t23.5 11.5t32.5 26.5t32 30l22 22q15 13 25.5 10t-2.5 -21q-6 -9 -18.5 -26t-28.5 -36t-34 -36t-36 -24q-8 -3 -22.5 0t-29.5 10 t-26 18.5t-10 26.5q0 13 6.5 27.5t14.5 31.5q-18 -5 -37 -1t-31 14t-14 24.5t13 31.5q16 19 31.5 21t24.5 -6.5t8.5 -24t-16.5 -30.5zM96 395q5 4 16 15t23.5 23t25.5 22t23 12q9 2 20 -4.5t18.5 -17t10.5 -21.5t-3 -18t-20.5 -13.5t-32.5 -12.5t-35.5 -10.5t-29.5 -7.5 t-18 0.5t-7.5 9t1.5 12t8 11.5z" />
<glyph unicode="&#x156;" horiz-adv-x="787" d="M485 115l76.5 -9t87 -9.5t88.5 -8.5t82.5 -6t68.5 -2.5t46 2.5q15 3 13 -7.5t-16 -24t-38 -25.5t-53 -12q-58 0 -107 10t-97 23.5t-97.5 26.5t-107.5 19q-20 -7 -43 -12t-47 -6.5t-48 2.5t-45 16q-7 -8 -17.5 -20.5t-20.5 -27.5t-17.5 -30t-8.5 -28q-1 -11 -12.5 -8.5 t-22.5 15t-16 34.5t7 50q8 20 29 46t48 54t58 56t59.5 53t52.5 44t37 30q15 12 35.5 15.5t37.5 2t25 -7.5t-2 -14q-21 -16 -53.5 -44.5t-68.5 -63t-71.5 -71t-62.5 -67.5q38 2 93 20.5t113.5 49.5t114 72t94.5 88.5t54.5 99.5t-5.5 104q-15 36 -47 52t-75.5 16t-95 -13.5 t-104.5 -35t-104.5 -49.5t-95 -57t-75.5 -57t-47 -50q-4 -5 -11.5 6t-10 31t5 45.5t34.5 48.5q40 35 93 67.5t112.5 58t122 39.5t121.5 11.5t110.5 -24.5t89.5 -70q41 -52 48 -102.5t-10.5 -97t-53 -87.5t-78.5 -73.5t-89 -55t-83 -32.5zM271 -131q-10 -6 -20.5 -1.5 t-8.5 18.5q1 6 8.5 25.5t17.5 41t20.5 38.5t17.5 19q7 1 17 -3t19 -10.5t14.5 -14t4.5 -12.5q0 -6 -11.5 -21t-27 -31.5t-30.5 -30.5t-21 -18z" />
<glyph unicode="&#x157;" horiz-adv-x="221" d="M46 262q4 -4 12 -3.5t16.5 3.5t16 7t10.5 7q2 4 10.5 4t17.5 -3.5t16.5 -10t9.5 -15.5q1 -8 -7.5 -23t-18 -29.5t-14.5 -25.5t3 -11t23.5 11.5t32.5 26.5t32 30l22 22q15 13 25.5 10t-2.5 -21q-6 -9 -18.5 -26t-28.5 -36t-34 -36t-36 -24q-8 -3 -22.5 0t-29.5 10 t-26 18.5t-10 26.5q0 13 6.5 27.5t14.5 31.5q-18 -5 -37 -1t-31 14t-14 24.5t13 31.5q16 19 31.5 21t24.5 -6.5t8.5 -24t-16.5 -30.5zM-53 -55q-10 -7 -20.5 -2t-8.5 19q1 6 8.5 25.5t17.5 40.5t20.5 38t17.5 19q7 1 17 -2.5t19 -10t14.5 -14t4.5 -12.5q0 -6 -11.5 -21 t-27 -31.5t-30.5 -30.5t-21 -18z" />
<glyph unicode="&#x158;" horiz-adv-x="787" d="M485 115l76.5 -9t87 -9.5t88.5 -8.5t82.5 -6t68.5 -2.5t46 2.5q15 3 13 -7.5t-16 -24t-38 -25.5t-53 -12q-58 0 -107 10t-97 23.5t-97.5 26.5t-107.5 19q-20 -7 -43 -12t-47 -6.5t-48 2.5t-45 16q-7 -8 -17.5 -20.5t-20.5 -27.5t-17.5 -30t-8.5 -28q-1 -11 -12.5 -8.5 t-22.5 15t-16 34.5t7 50q8 20 29 46t48 54t58 56t59.5 53t52.5 44t37 30q15 12 35.5 15.5t37.5 2t25 -7.5t-2 -14q-21 -16 -53.5 -44.5t-68.5 -63t-71.5 -71t-62.5 -67.5q38 2 93 20.5t113.5 49.5t114 72t94.5 88.5t54.5 99.5t-5.5 104q-15 36 -47 52t-75.5 16t-95 -13.5 t-104.5 -35t-104.5 -49.5t-95 -57t-75.5 -57t-47 -50q-4 -5 -11.5 6t-10 31t5 45.5t34.5 48.5q40 35 93 67.5t112.5 58t122 39.5t121.5 11.5t110.5 -24.5t89.5 -70q41 -52 48 -102.5t-10.5 -97t-53 -87.5t-78.5 -73.5t-89 -55t-83 -32.5zM800 738q-1 -7 -17.5 -21t-37 -28.5 t-40.5 -25t-27 -10.5q-12 0 -23 10t-20 24t-14 28.5t-3 24.5q0 5 5.5 9t13 6t14.5 2t11 -3q4 -4 3 -10.5t-4 -14.5t-6 -16.5t-1 -17.5q9 7 21.5 18t25 21t23.5 18t18 10t17.5 1t20 -4.5t15.5 -8.5t5 -12z" />
<glyph unicode="&#x159;" horiz-adv-x="221" d="M46 262q4 -4 12 -3.5t16.5 3.5t16 7t10.5 7q2 4 10.5 4t17.5 -3.5t16.5 -10t9.5 -15.5q1 -8 -7.5 -23t-18 -29.5t-14.5 -25.5t3 -11t23.5 11.5t32.5 26.5t32 30l22 22q15 13 25.5 10t-2.5 -21q-6 -9 -18.5 -26t-28.5 -36t-34 -36t-36 -24q-8 -3 -22.5 0t-29.5 10 t-26 18.5t-10 26.5q0 13 6.5 27.5t14.5 31.5q-18 -5 -37 -1t-31 14t-14 24.5t13 31.5q16 19 31.5 21t24.5 -6.5t8.5 -24t-16.5 -30.5zM242 445q-1 -7 -17.5 -21t-37 -28.5t-40.5 -25t-27 -10.5q-12 0 -23 10t-20 24t-14 29t-3 25q0 5 5.5 8.5t13 5.5t14.5 2t11 -3 q4 -4 3 -10.5t-4 -14.5t-6 -16.5t-1 -17.5q9 7 21.5 18t25 21t23.5 18t18 10t17.5 1t20 -4.5t15.5 -8.5t5 -12z" />
<glyph unicode="&#x15a;" horiz-adv-x="716" d="M305 542q32 16 83.5 38t112 41t125 32.5t122 13.5t103.5 -18t69 -61q10 -19 4 -36.5t-22.5 -33t-39.5 -28t-47 -22t-45 -14.5t-32 -5q-25 -1 -43 5.5t-27 15t-7 16.5t17 10q12 2 33.5 7.5t46 13.5t48.5 18.5t41.5 21t24.5 21.5t-2 21q-21 21 -65 22.5t-102 -12t-125 -39 t-135 -58.5t-131.5 -70.5t-114.5 -75.5t-84 -74t-39 -64q-4 -19 10 -22t34 0.5t40.5 10.5t29.5 9q39 10 81.5 22.5t85.5 23t85.5 18t83.5 6.5q24 -1 52.5 -14.5t50 -35.5t29.5 -50.5t-9 -59.5q-19 -33 -58.5 -66t-91.5 -62t-111 -51.5t-116.5 -35t-108.5 -13t-87 15.5 q-26 12 -44.5 36.5t-24.5 52t4 53t40 40.5q10 4 22 0t20.5 -11.5t11 -16t-5.5 -13.5q-36 -23 -47 -40t-4 -28t28 -16.5t49 -5.5t59 4t59 13q85 26 167.5 66.5t157.5 109.5q37 34 35.5 49.5t-29 17.5t-74.5 -6t-100.5 -19.5t-107.5 -23.5t-94 -18q-19 -3 -41.5 -2.5t-44 4 t-41 11t-32.5 19.5q-39 35 -29 79t51.5 90t107 91t138.5 82zM564 718q5 4 16 15t23.5 23t25.5 22t23 12q9 2 20 -5t18.5 -17.5t10.5 -21.5t-3 -18t-20.5 -13.5t-32.5 -12t-35.5 -10t-29.5 -7.5t-18 0.5t-7.5 9t1.5 12t8 11.5z" />
<glyph unicode="&#x15b;" horiz-adv-x="200" d="M53 247q21 3 39.5 0.5t33 -8.5t23 -16t8.5 -23t-8.5 -31t-22 -35t-31 -31t-33.5 -18q-17 -4 -33 1t-28.5 15t-20.5 22.5t-8 22.5q0 7 5.5 16t14.5 17.5t20 16t22 12.5q17 8 20 0.5t-7 -18.5q-3 -3 -9.5 -10.5l-13 -15t-11 -14.5t-1.5 -10q5 -4 17.5 4.5t25 22t22 27 t8.5 20.5q-2 7 -14 6.5t-27 -1t-30.5 2t-23.5 14.5q-9 13 -7.5 29.5t9.5 31.5t20.5 25.5t24.5 12.5q8 1 17 -3t16.5 -10.5t12.5 -14.5t5 -15q0 -14 -13 -23t-22 -22zM34 395q5 4 16 15t23.5 23t25.5 22t22 12t20 -4.5t19 -17t11 -21.5t-3 -18t-21 -13.5t-33 -12.5 t-35.5 -10.5t-29.5 -7.5t-17.5 0.5t-7 9t1 12t8.5 11.5z" />
<glyph unicode="&#x15c;" horiz-adv-x="716" d="M305 542q32 16 83.5 38t112 41t125 32.5t122 13.5t103.5 -18t69 -61q10 -19 4 -36.5t-22.5 -33t-39.5 -28t-47 -22t-45 -14.5t-32 -5q-25 -1 -43 5.5t-27 15t-7 16.5t17 10q12 2 33.5 7.5t46 13.5t48.5 18.5t41.5 21t24.5 21.5t-2 21q-21 21 -65 22.5t-102 -12t-125 -39 t-135 -58.5t-131.5 -70.5t-114.5 -75.5t-84 -74t-39 -64q-4 -19 10 -22t34 0.5t40.5 10.5t29.5 9q39 10 81.5 22.5t85.5 23t85.5 18t83.5 6.5q24 -1 52.5 -14.5t50 -35.5t29.5 -50.5t-9 -59.5q-19 -33 -58.5 -66t-91.5 -62t-111 -51.5t-116.5 -35t-108.5 -13t-87 15.5 q-26 12 -44.5 36.5t-24.5 52t4 53t40 40.5q10 4 22 0t20.5 -11.5t11 -16t-5.5 -13.5q-36 -23 -47 -40t-4 -28t28 -16.5t49 -5.5t59 4t59 13q85 26 167.5 66.5t157.5 109.5q37 34 35.5 49.5t-29 17.5t-74.5 -6t-100.5 -19.5t-107.5 -23.5t-94 -18q-19 -3 -41.5 -2.5t-44 4 t-41 11t-32.5 19.5q-39 35 -29 79t51.5 90t107 91t138.5 82zM710 713q1 7 17.5 21t37.5 28.5t40.5 25t27.5 10.5q12 0 23 -10t19.5 -24t13.5 -29t4 -25q0 -5 -5.5 -8.5t-13 -5.5t-15 -2t-11.5 3q-5 4 -3.5 10.5t4.5 14.5t6 16.5t2 17.5q-9 -8 -21.5 -18.5t-25 -20.5 t-23.5 -18t-18 -10t-17.5 -1t-20 4.5t-16 8.5t-5.5 12z" />
<glyph unicode="&#x15d;" horiz-adv-x="200" d="M53 247q21 3 39.5 0.5t33 -8.5t23 -16t8.5 -23t-8.5 -31t-22 -35t-31 -31t-33.5 -18q-17 -4 -33 1t-28.5 15t-20.5 22.5t-8 22.5q0 7 5.5 16t14.5 17.5t20 16t22 12.5q17 8 20 0.5t-7 -18.5q-3 -3 -9.5 -10.5l-13 -15t-11 -14.5t-1.5 -10q5 -4 17.5 4.5t25 22t22 27 t8.5 20.5q-2 7 -14 6.5t-27 -1t-30.5 2t-23.5 14.5q-9 13 -7.5 29.5t9.5 31.5t20.5 25.5t24.5 12.5q8 1 17 -3t16.5 -10.5t12.5 -14.5t5 -15q0 -14 -13 -23t-22 -22zM-6 390q1 7 17.5 21t37.5 28.5t40 25t27 10.5q12 0 23.5 -10t20 -24t13 -28.5t3.5 -24.5q0 -5 -5.5 -9 t-12.5 -6t-14.5 -2t-11.5 3q-5 4 -3.5 10.5t4.5 14.5t5.5 16.5t1.5 17.5q-9 -8 -21.5 -18.5t-24.5 -20.5t-23 -18t-18 -10t-17.5 -1t-20.5 4.5t-16.5 8.5t-4.5 12z" />
<glyph unicode="&#x15e;" horiz-adv-x="716" d="M305 542q32 16 83.5 38t112 41t125 32.5t122 13.5t103.5 -18t69 -61q10 -19 4 -36.5t-22.5 -33t-39.5 -28t-47 -22t-45 -14.5t-32 -5q-25 -1 -43 5.5t-27 15t-7 16.5t17 10q12 2 33.5 7.5t46 13.5t48.5 18.5t41.5 21t24.5 21.5t-2 21q-21 21 -65 22.5t-102 -12t-125 -39 t-135 -58.5t-131.5 -70.5t-114.5 -75.5t-84 -74t-39 -64q-4 -19 10 -22t34 0.5t40.5 10.5t29.5 9q39 10 81.5 22.5t85.5 23t85.5 18t83.5 6.5q24 -1 52.5 -14.5t50 -35.5t29.5 -50.5t-9 -59.5q-23 -40 -74.5 -79t-117.5 -71t-138 -53t-135 -24l-1 -1q-5 -8 -15.5 -14.5 t-11.5 -14.5q-1 -4 10.5 -8.5t23 -12.5t17.5 -20.5t-6 -31.5q-12 -20 -32.5 -22t-41.5 5.5t-37.5 20t-19.5 21.5t-0.5 14.5t7 7.5t9.5 0t8 -8q6 -13 20.5 -17t19.5 8q3 6 0.5 9.5t-7 6.5t-9.5 6t-8 8q-5 7 7.5 19t26.5 25q-37 1 -68 14q-26 12 -44.5 36.5t-24.5 52t4 53 t40 40.5q10 4 22 0t20.5 -11.5t11 -16t-5.5 -13.5q-36 -23 -47 -40t-4 -28t28 -16.5t49 -5.5t59 4t59 13q85 26 167.5 66.5t157.5 109.5q37 34 35.5 49.5t-29 17.5t-74.5 -6t-100.5 -19.5t-107.5 -23.5t-94 -18q-19 -3 -41.5 -2.5t-44 4t-41 11t-32.5 19.5q-39 35 -29 79 t51.5 90t107 91t138.5 82z" />
<glyph unicode="&#x15f;" horiz-adv-x="200" d="M-7 108q-9 9 -15 19t-6 19q0 7 5.5 16t14.5 17.5t20 16t22 12.5q17 8 20 0.5t-7 -18.5q-3 -3 -9.5 -10.5l-13 -15t-11 -14.5t-1.5 -10q5 -4 17.5 4.5t25 22t22 27t8.5 20.5q-2 7 -14 6.5t-27 -1t-30.5 2t-23.5 14.5q-9 13 -7.5 29.5t9.5 31.5t20.5 25.5t24.5 12.5 q8 1 17 -3t16.5 -10.5t12.5 -14.5t5 -15q0 -14 -13 -23t-22 -22q21 3 39.5 0.5t33 -8.5t23 -16t8.5 -23t-8.5 -31t-22 -35t-31 -31t-33.5 -18q-11 -2 -22.5 -0.5t-22.5 6.5q-7 -6 -15 -11.5t-9 -13.5q0 -4 11.5 -8.5t23 -12t17 -20t-6.5 -32.5t-32.5 -22t-41.5 5.5t-37 20 t-19 21.5t-1 14.5t6.5 7.5t10 0t8.5 -8q5 -12 19.5 -16.5t19.5 7.5q5 11 -6 16t-18 14q-3 4 1.5 10.5t12 14t16.5 15.5t16 15z" />
<glyph unicode="&#x160;" horiz-adv-x="716" d="M305 542q32 16 83.5 38t112 41t125 32.5t122 13.5t103.5 -18t69 -61q10 -19 4 -36.5t-22.5 -33t-39.5 -28t-47 -22t-45 -14.5t-32 -5q-25 -1 -43 5.5t-27 15t-7 16.5t17 10q12 2 33.5 7.5t46 13.5t48.5 18.5t41.5 21t24.5 21.5t-2 21q-21 21 -65 22.5t-102 -12t-125 -39 t-135 -58.5t-131.5 -70.5t-114.5 -75.5t-84 -74t-39 -64q-4 -19 10 -22t34 0.5t40.5 10.5t29.5 9q39 10 81.5 22.5t85.5 23t85.5 18t83.5 6.5q24 -1 52.5 -14.5t50 -35.5t29.5 -50.5t-9 -59.5q-19 -33 -58.5 -66t-91.5 -62t-111 -51.5t-116.5 -35t-108.5 -13t-87 15.5 q-26 12 -44.5 36.5t-24.5 52t4 53t40 40.5q10 4 22 0t20.5 -11.5t11 -16t-5.5 -13.5q-36 -23 -47 -40t-4 -28t28 -16.5t49 -5.5t59 4t59 13q85 26 167.5 66.5t157.5 109.5q37 34 35.5 49.5t-29 17.5t-74.5 -6t-100.5 -19.5t-107.5 -23.5t-94 -18q-19 -3 -41.5 -2.5t-44 4 t-41 11t-32.5 19.5q-39 35 -29 79t51.5 90t107 91t138.5 82zM619 738q-1 -7 -17.5 -21t-37 -28.5t-40.5 -25t-27 -10.5q-12 0 -23 10t-20 24t-14 28.5t-3 24.5q0 5 5.5 9t12.5 6t14.5 2t11.5 -3q4 -4 3 -10.5t-4 -14.5t-6 -16.5t-1 -17.5q9 7 21.5 18t24.5 21t23 18t18 10 t17.5 1t20 -4.5t16 -8.5t5.5 -12z" />
<glyph unicode="&#x161;" horiz-adv-x="200" d="M53 247q21 3 39.5 0.5t33 -8.5t23 -16t8.5 -23t-8.5 -31t-22 -35t-31 -31t-33.5 -18q-17 -4 -33 1t-28.5 15t-20.5 22.5t-8 22.5q0 7 5.5 16t14.5 17.5t20 16t22 12.5q17 8 20 0.5t-7 -18.5q-3 -3 -9.5 -10.5l-13 -15t-11 -14.5t-1.5 -10q5 -4 17.5 4.5t25 22t22 27 t8.5 20.5q-2 7 -14 6.5t-27 -1t-30.5 2t-23.5 14.5q-9 13 -7.5 29.5t9.5 31.5t20.5 25.5t24.5 12.5q8 1 17 -3t16.5 -10.5t12.5 -14.5t5 -15q0 -14 -13 -23t-22 -22zM211 445q-1 -7 -17.5 -21t-37 -28.5t-40.5 -25t-27 -10.5q-12 0 -23 10t-20 24t-14 29t-3 25q0 5 5.5 8.5 t12.5 5.5t14.5 2t11.5 -3q4 -4 3 -10.5t-4 -14.5t-6 -16.5t-1 -17.5q9 7 21.5 18t24.5 21t23 18t18 10t17.5 1t20 -4.5t16 -8.5t5.5 -12z" />
<glyph unicode="&#x162;" horiz-adv-x="586" d="M930 634q44 -12 69 -32t29.5 -42t-12 -42.5t-54.5 -33.5q-24 -9 -44.5 -5t-34 12.5t-19 17.5t0.5 11q13 3 35.5 9.5t39.5 17.5q34 23 27.5 40t-48.5 24.5t-116.5 4.5t-174.5 -20q-63 -10 -129 -26.5t-130 -40.5t-123.5 -56.5t-109.5 -74.5q-48 -39 -62.5 -71.5 t-0.5 -49.5q5 -6 -1.5 -7t-17 3t-21.5 13.5t-15 24.5q-12 38 3 73t46.5 65.5t74 57.5t86.5 49q76 39 166 64t183 35t184 5t169 -26zM276 19q7 42 23 91t37.5 99.5t46.5 100t52 91t53.5 73t49.5 46.5q14 9 31 12.5t31.5 3t23.5 -3t6 -5.5q-23 -24 -53.5 -62.5t-62.5 -86 t-64 -101.5t-58 -110.5t-45 -112.5t-25 -107q-2 -12 -11 -12t-18 10.5t-15.5 29t-1.5 44.5zM205 -226q-10 -6 -20.5 -1.5t-8.5 18.5q1 6 8.5 25.5t17.5 41t20.5 38.5t17.5 19q7 1 17 -3t19 -10.5t14.5 -13.5t4.5 -13q0 -6 -11.5 -21t-27 -31.5t-30.5 -30.5t-21 -18z" />
<glyph unicode="&#x163;" horiz-adv-x="186" d="M19 358q5 5 63 7q16 14 30 23t27 9q12 0 26 -9.5t22 -21.5q51 0 109 1t118 3q76 2 149 6t132 8t98 7t48 3q17 0 37.5 -5.5t37.5 -13t26.5 -16t3.5 -15.5q-4 -4 -39 -4.5t-92.5 0t-133 1.5t-160 1.5t-172.5 0t-171 -4.5q-11 -8 -28 -24t-35 -35t-35.5 -40t-29.5 -39 t-16.5 -31.5t2.5 -18.5q6 -4 28 9t47.5 31t49 35.5t32.5 22.5q18 12 26 5t-1 -19q-5 -6 -24 -25.5t-44.5 -40t-53 -36.5t-47.5 -16q-41 0 -53.5 22.5t-7.5 56t24 72t43 69.5q-47 10 -36 22zM-67 -64q-10 -6 -20.5 -1.5t-8.5 18.5q1 6 8.5 25.5t17.5 41t20.5 38.5t17.5 19 q7 1 17 -3t18.5 -10.5t14.5 -13.5t5 -13q0 -6 -11.5 -21t-27 -31.5t-30.5 -30.5t-21 -18z" />
<glyph unicode="&#x164;" horiz-adv-x="586" d="M930 634q44 -12 69 -32t29.5 -42t-12 -42.5t-54.5 -33.5q-24 -9 -44.5 -5t-34 12.5t-19 17.5t0.5 11q13 3 35.5 9.5t39.5 17.5q34 23 27.5 40t-48.5 24.5t-116.5 4.5t-174.5 -20q-63 -10 -129 -26.5t-130 -40.5t-123.5 -56.5t-109.5 -74.5q-48 -39 -62.5 -71.5 t-0.5 -49.5q5 -6 -1.5 -7t-17 3t-21.5 13.5t-15 24.5q-12 38 3 73t46.5 65.5t74 57.5t86.5 49q76 39 166 64t183 35t184 5t169 -26zM276 19q7 42 23 91t37.5 99.5t46.5 100t52 91t53.5 73t49.5 46.5q14 9 31 12.5t31.5 3t23.5 -3t6 -5.5q-23 -24 -53.5 -62.5t-62.5 -86 t-64 -101.5t-58 -110.5t-45 -112.5t-25 -107q-2 -12 -11 -12t-18 10.5t-15.5 29t-1.5 44.5zM703 774q-1 -7 -17.5 -21t-37 -28.5t-40.5 -25t-27 -10.5q-12 0 -23 10t-20 24t-14 28.5t-3 24.5q0 5 5.5 9t12.5 6t14.5 2t11.5 -3q4 -4 3 -10.5t-4 -14.5t-6 -16.5t-1 -17.5 q9 7 21.5 18t24.5 21t23 18t18 10t17.5 1t20 -4.5t16 -8.5t5.5 -12z" />
<glyph unicode="&#x165;" horiz-adv-x="181" d="M19 358q5 5 63 7q16 14 30 23t27 9q12 0 26 -9.5t22 -21.5q51 0 109 1t118 3q76 2 149 6t132 8t98 7t48 3q17 0 37.5 -5.5t37.5 -13t26.5 -16t3.5 -15.5q-4 -4 -39 -4.5t-92.5 0t-133 1.5t-160 1.5t-172.5 0t-171 -4.5q-11 -8 -28 -24t-35 -35t-35.5 -40t-29.5 -39 t-16.5 -31.5t2.5 -18.5q6 -4 28 9t47.5 31t49 35.5t32.5 22.5q18 12 26 5t-1 -19q-5 -6 -24 -25.5t-44.5 -40t-53 -36.5t-47.5 -16q-41 0 -53.5 22.5t-7.5 56t24 72t43 69.5q-47 10 -36 22zM265 394q-10 -7 -20.5 -2.5t-8.5 18.5q1 6 8.5 25.5t17.5 41t20.5 38.5t17.5 19 q7 1 17 -2.5t19 -10t14.5 -14t4.5 -13.5q0 -6 -11.5 -20.5t-27 -31t-30.5 -30.5t-21 -18z" />
<glyph unicode="&#x166;" horiz-adv-x="586" d="M930 634q44 -12 69 -32t29.5 -42t-12 -42.5t-54.5 -33.5q-24 -9 -44.5 -5t-34 12.5t-19 17.5t0.5 11q13 3 35.5 9.5t39.5 17.5q34 23 27.5 40t-48.5 24.5t-116.5 4.5t-174.5 -20q-63 -10 -129 -26.5t-130 -40.5t-123.5 -56.5t-109.5 -74.5q-48 -39 -62.5 -71.5 t-0.5 -49.5q5 -6 -1.5 -7t-17 3t-21.5 13.5t-15 24.5q-12 38 3 73t46.5 65.5t74 57.5t86.5 49q76 39 166 64t183 35t184 5t169 -26zM442 410q25 38 49.5 66.5t46.5 43.5q14 9 31 12.5t31.5 3t23.5 -3t6 -5.5q-20 -21 -44 -50t-50 -67q22 2 41.5 2t36.5 2q15 1 18 -2t-3 -7.5 t-20.5 -9t-34.5 -5.5l-54 -4q-33 -48 -66 -103t-60 -112t-46.5 -114.5t-25.5 -109.5q-2 -12 -11 -12t-18 10.5t-15.5 29t-1.5 44.5q7 40 21.5 86.5t34.5 95t44 96t49 88.5h-64q-14 0 -14.5 4t9.5 8.5t27 8.5t37 4h22z" />
<glyph unicode="&#x167;" horiz-adv-x="186" d="M19 358q5 5 63 7q16 14 30 23t27 9q12 0 26 -9.5t22 -21.5q51 0 109 1t118 3q76 2 149 6t132 8t98 7t48 3q17 0 37.5 -5.5t37.5 -13t26.5 -16t3.5 -15.5q-4 -4 -39 -4.5t-92.5 0t-133 1.5t-160 1.5t-172.5 0t-171 -4.5q-12 -8 -29 -25l57 3q11 1 13.5 -2t-2 -7.5 t-15.5 -8.5t-27 -5q-23 -4 -50 -4q-20 -20 -39 -42.5t-32.5 -42t-19.5 -34.5t2 -20q6 -4 28 9t47.5 31t49 35.5t32.5 22.5q18 12 26 5t-1 -19q-5 -6 -24 -25.5t-44.5 -40t-53 -36.5t-47.5 -16q-33 0 -47.5 16t-15 40.5t10 55t26.5 60.5h-12q-9 0 -11 3t2.5 7t13.5 8t21 6 l18 24q-47 10 -36 22z" />
<glyph unicode="&#x168;" horiz-adv-x="788" d="M118 84q49 -4 114 21.5t137 69t147 98.5t143 110t124.5 104.5t92.5 80.5q17 15 44.5 17.5t52 -1.5t40 -11.5t9.5 -13.5q-22 -19 -62 -50.5t-85 -71t-90 -84.5t-76.5 -91.5t-44 -91.5t6.5 -85q5 -9 -1 -14t-18 3q-23 15 -30.5 43t-4.5 59.5t12.5 62t20.5 50.5 q-44 -26 -98 -59t-111 -65.5t-114.5 -60t-108.5 -42t-92.5 -12.5t-66.5 30q-23 25 -28 58t3 69.5t26.5 74.5t41.5 73t48 65.5t47 52.5q16 16 42 21.5t49 3.5t36.5 -10t4.5 -18q-4 -5 -20.5 -23.5t-39 -45.5t-49 -60.5t-51 -68t-44.5 -67.5t-29 -59.5t-5 -43t27 -18.5z M493 576q11 17 31 33t34 22q7 3 16 3.5t18 -2t16 -6t10 -7.5q8 -9 8 -19.5t2 -10.5q1 0 13.5 4.5t25.5 28.5q3 5 8 7t10 1.5t8 -5t2 -11.5q-3 -14 -11 -27.5t-18 -24.5t-20.5 -19t-17.5 -10q-16 -5 -38.5 -3.5t-33.5 12.5q-4 4 -7 10t-5 11q-3 6 -4 12q-8 -5 -13.5 -11 t-11.5 -11q-7 -6 -13 -6t-10 3.5t-4 10.5t5 15z" />
<glyph unicode="&#x169;" horiz-adv-x="325" d="M49 311q7 5 19 2.5t23 -9t20 -15t10 -15.5q2 -5 -4 -15.5t-15.5 -22.5t-20 -25t-18 -22.5t-9.5 -14.5t6 -2q7 3 19.5 12.5t27.5 22.5t31 27.5t30 27.5t24 22t14 11q5 1 13 -1t16.5 -7t15 -12.5t9.5 -15.5t-7.5 -22.5t-23 -29.5t-21.5 -27t-4 -16q4 -3 21.5 7.5t39.5 26 t42.5 31.5t29.5 24q18 16 25 7.5t-3 -24.5q-6 -7 -23.5 -25.5t-38.5 -38.5t-42 -36t-33 -18q-13 -3 -27.5 0.5t-27.5 11.5t-22.5 19t-11.5 23q-2 8 0 14.5t4 9.5q-13 -11 -28.5 -24.5t-30.5 -25.5t-28 -20t-22 -8q-6 0 -17 3.5t-21.5 9.5t-19 13.5t-10.5 16.5q-1 9 8.5 29 t23 43t29.5 44.5t28 33.5zM112 396q11 17 30.5 33t33.5 22q7 3 16 3.5t18 -2t16 -6t10 -7.5q8 -9 8.5 -19.5t1.5 -10.5t14 4.5t26 28.5q3 5 8 7t9.5 1.5t7.5 -5t2 -11.5q-3 -14 -11 -27.5t-18 -24.5t-20.5 -19t-17.5 -10q-8 -2 -18 -3t-20.5 -0.5t-19.5 3.5t-14 9 q-4 4 -7 10t-5 11q-3 6 -4 12q-7 -5 -12.5 -11t-12.5 -11q-14 -11 -23 -2.5t2 25.5z" />
<glyph unicode="&#x16a;" horiz-adv-x="788" d="M118 84q49 -4 114 21.5t137 69t147 98.5t143 110t124.5 104.5t92.5 80.5q17 15 44.5 17.5t52 -1.5t40 -11.5t9.5 -13.5q-22 -19 -62 -50.5t-85 -71t-90 -84.5t-76.5 -91.5t-44 -91.5t6.5 -85q5 -9 -1 -14t-18 3q-23 15 -30.5 43t-4.5 59.5t12.5 62t20.5 50.5 q-44 -26 -98 -59t-111 -65.5t-114.5 -60t-108.5 -42t-92.5 -12.5t-66.5 30q-23 25 -28 58t3 69.5t26.5 74.5t41.5 73t48 65.5t47 52.5q16 16 42 21.5t49 3.5t36.5 -10t4.5 -18q-4 -5 -20.5 -23.5t-39 -45.5t-49 -60.5t-51 -68t-44.5 -67.5t-29 -59.5t-5 -43t27 -18.5z M512 524q45 0 94 0.5t85 3.5q13 1 16 -3t-3 -9t-19 -10t-31 -7q-27 -3 -55.5 -4t-55 -1h-48.5h-37q-13 0 -13 4.5t9 10.5t24.5 10.5t33.5 4.5z" />
<glyph unicode="&#x16b;" horiz-adv-x="325" d="M49 311q7 5 19 2.5t23 -9t20 -15t10 -15.5q2 -5 -4 -15.5t-15.5 -22.5t-20 -25t-18 -22.5t-9.5 -14.5t6 -2q7 3 19.5 12.5t27.5 22.5t31 27.5t30 27.5t24 22t14 11q5 1 13 -1t16.5 -7t15 -12.5t9.5 -15.5t-7.5 -22.5t-23 -29.5t-21.5 -27t-4 -16q4 -3 21.5 7.5t39.5 26 t42.5 31.5t29.5 24q18 16 25 7.5t-3 -24.5q-6 -7 -23.5 -25.5t-38.5 -38.5t-42 -36t-33 -18q-13 -3 -27.5 0.5t-27.5 11.5t-22.5 19t-11.5 23q-2 8 0 14.5t4 9.5q-13 -11 -28.5 -24.5t-30.5 -25.5t-28 -20t-22 -8q-6 0 -17 3.5t-21.5 9.5t-19 13.5t-10.5 16.5q-1 9 8.5 29 t23 43t29.5 44.5t28 33.5zM156 406q35 0 73 0.5t67 3.5q10 1 12.5 -3.5t-2 -11.5t-15 -14t-25.5 -9q-21 -4 -43 -5.5t-42.5 -2t-37.5 0t-29 0.5q-11 0 -11 6.5t7 14t19.5 14t26.5 6.5z" />
<glyph unicode="&#x16c;" horiz-adv-x="788" d="M118 84q49 -4 114 21.5t137 69t147 98.5t143 110t124.5 104.5t92.5 80.5q17 15 44.5 17.5t52 -1.5t40 -11.5t9.5 -13.5q-22 -19 -62 -50.5t-85 -71t-90 -84.5t-76.5 -91.5t-44 -91.5t6.5 -85q5 -9 -1 -14t-18 3q-23 15 -30.5 43t-4.5 59.5t12.5 62t20.5 50.5 q-44 -26 -98 -59t-111 -65.5t-114.5 -60t-108.5 -42t-92.5 -12.5t-66.5 30q-23 25 -28 58t3 69.5t26.5 74.5t41.5 73t48 65.5t47 52.5q16 16 42 21.5t49 3.5t36.5 -10t4.5 -18q-4 -5 -20.5 -23.5t-39 -45.5t-49 -60.5t-51 -68t-44.5 -67.5t-29 -59.5t-5 -43t27 -18.5z M716 620q-1 -7 -15 -21t-36 -28.5t-49 -25t-54 -10.5q-21 0 -31 10.5t-12 25t2.5 29t12.5 23.5q6 7 21 13t23 0q4 -4 -0.5 -13.5t-10 -19.5t-7 -18t9.5 -8q16 0 29 10t24 22t19.5 22.5t15.5 12.5t17.5 1t20 -4.5t15.5 -8.5t5 -12z" />
<glyph unicode="&#x16d;" horiz-adv-x="325" d="M49 311q7 5 19 2.5t23 -9t20 -15t10 -15.5q2 -5 -4 -15.5t-15.5 -22.5t-20 -25t-18 -22.5t-9.5 -14.5t6 -2q7 3 19.5 12.5t27.5 22.5t31 27.5t30 27.5t24 22t14 11q5 1 13 -1t16.5 -7t15 -12.5t9.5 -15.5t-7.5 -22.5t-23 -29.5t-21.5 -27t-4 -16q4 -3 21.5 7.5t39.5 26 t42.5 31.5t29.5 24q18 16 25 7.5t-3 -24.5q-6 -7 -23.5 -25.5t-38.5 -38.5t-42 -36t-33 -18q-13 -3 -27.5 0.5t-27.5 11.5t-22.5 19t-11.5 23q-2 8 0 14.5t4 9.5q-13 -11 -28.5 -24.5t-30.5 -25.5t-28 -20t-22 -8q-6 0 -17 3.5t-21.5 9.5t-19 13.5t-10.5 16.5q-1 9 8.5 29 t23 43t29.5 44.5t28 33.5zM318 445q-2 -7 -16 -21t-36 -28.5t-49 -25t-54 -10.5q-21 0 -31 10.5t-11.5 25t3 29t12.5 23.5q6 7 21 13t23 0q4 -4 -0.5 -13.5t-10 -19.5t-7 -18t9.5 -8q16 0 29 10t23.5 22t19 22.5t15.5 12.5t17.5 1t20 -4.5t16 -8.5t5.5 -12z" />
<glyph unicode="&#x16e;" horiz-adv-x="788" d="M118 84q49 -4 114 21.5t137 69t147 98.5t143 110t124.5 104.5t92.5 80.5q17 15 44.5 17.5t52 -1.5t40 -11.5t9.5 -13.5q-22 -19 -62 -50.5t-85 -71t-90 -84.5t-76.5 -91.5t-44 -91.5t6.5 -85q5 -9 -1 -14t-18 3q-23 15 -30.5 43t-4.5 59.5t12.5 62t20.5 50.5 q-44 -26 -98 -59t-111 -65.5t-114.5 -60t-108.5 -42t-92.5 -12.5t-66.5 30q-23 25 -28 58t3 69.5t26.5 74.5t41.5 73t48 65.5t47 52.5q16 16 42 21.5t49 3.5t36.5 -10t4.5 -18q-4 -5 -20.5 -23.5t-39 -45.5t-49 -60.5t-51 -68t-44.5 -67.5t-29 -59.5t-5 -43t27 -18.5z M569 653q6 0 19 -6t26.5 -15t23.5 -19.5t10 -18.5q2 -18 -7 -35t-23 -29t-28.5 -18t-23.5 -4q-8 2 -19.5 9t-22.5 16t-19 18.5t-8 18.5t7 23t17.5 26.5t23 22t24.5 11.5zM546 551q4 -6 13.5 0.5t18.5 16.5t15 20.5t5 13.5q-4 6 -13.5 0t-18.5 -16.5t-15.5 -21t-4.5 -13.5z " />
<glyph unicode="&#x16f;" horiz-adv-x="325" d="M49 311q7 5 19 2.5t23 -9t20 -15t10 -15.5q2 -5 -4 -15.5t-15.5 -22.5t-20 -25t-18 -22.5t-9.5 -14.5t6 -2q7 3 19.5 12.5t27.5 22.5t31 27.5t30 27.5t24 22t14 11q5 1 13 -1t16.5 -7t15 -12.5t9.5 -15.5t-7.5 -22.5t-23 -29.5t-21.5 -27t-4 -16q4 -3 21.5 7.5t39.5 26 t42.5 31.5t29.5 24q18 16 25 7.5t-3 -24.5q-6 -7 -23.5 -25.5t-38.5 -38.5t-42 -36t-33 -18q-13 -3 -27.5 0.5t-27.5 11.5t-22.5 19t-11.5 23q-2 8 0 14.5t4 9.5q-13 -11 -28.5 -24.5t-30.5 -25.5t-28 -20t-22 -8q-6 0 -17 3.5t-21.5 9.5t-19 13.5t-10.5 16.5q-1 9 8.5 29 t23 43t29.5 44.5t28 33.5zM214 480q6 0 19 -6t26 -15t23.5 -19.5t10.5 -18.5q2 -18 -7 -35t-23 -29t-28.5 -18t-23.5 -4q-8 2 -19.5 9t-22.5 16t-19 18.5t-8 18.5t6.5 23t17 26.5t23.5 22t25 11.5zM191 378q4 -5 13 1t18 16.5t15.5 21t4.5 13.5q-3 6 -12.5 -0.5t-18.5 -17 t-15.5 -21t-4.5 -13.5z" />
<glyph unicode="&#x170;" horiz-adv-x="788" d="M118 84q49 -4 114 21.5t137 69t147 98.5t143 110t124.5 104.5t92.5 80.5q17 15 44.5 17.5t52 -1.5t40 -11.5t9.5 -13.5q-22 -19 -62 -50.5t-85 -71t-90 -84.5t-76.5 -91.5t-44 -91.5t6.5 -85q5 -9 -1 -14t-18 3q-23 15 -30.5 43t-4.5 59.5t12.5 62t20.5 50.5 q-44 -26 -98 -59t-111 -65.5t-114.5 -60t-108.5 -42t-92.5 -12.5t-66.5 30q-23 25 -28 58t3 69.5t26.5 74.5t41.5 73t48 65.5t47 52.5q16 16 42 21.5t49 3.5t36.5 -10t4.5 -18q-4 -5 -20.5 -23.5t-39 -45.5t-49 -60.5t-51 -68t-44.5 -67.5t-29 -59.5t-5 -43t27 -18.5z M499 570q6 4 16.5 15t23.5 23t26 22t22 12q13 3 26.5 -9.5t20.5 -27.5q14 13 27.5 23.5t23.5 13.5q9 2 20 -4.5t19 -17t11 -21.5t-3 -18t-21 -13.5t-33 -12t-35.5 -10t-29.5 -7.5q-17 -5 -22.5 3t-1.5 17q-20 -8 -40.5 -13t-33.5 -7q-12 -3 -17.5 0t-7 8.5t1 12t7.5 11.5z " />
<glyph unicode="&#x171;" horiz-adv-x="325" d="M49 311q7 5 19 2.5t23 -9t20 -15t10 -15.5q2 -5 -4 -15.5t-15.5 -22.5t-20 -25t-18 -22.5t-9.5 -14.5t6 -2q7 3 19.5 12.5t27.5 22.5t31 27.5t30 27.5t24 22t14 11q5 1 13 -1t16.5 -7t15 -12.5t9.5 -15.5t-7.5 -22.5t-23 -29.5t-21.5 -27t-4 -16q4 -3 21.5 7.5t39.5 26 t42.5 31.5t29.5 24q18 16 25 7.5t-3 -24.5q-6 -7 -23.5 -25.5t-38.5 -38.5t-42 -36t-33 -18q-13 -3 -27.5 0.5t-27.5 11.5t-22.5 19t-11.5 23q-2 8 0 14.5t4 9.5q-13 -11 -28.5 -24.5t-30.5 -25.5t-28 -20t-22 -8q-6 0 -17 3.5t-21.5 9.5t-19 13.5t-10.5 16.5q-1 9 8.5 29 t23 43t29.5 44.5t28 33.5zM114 395q5 4 16 15t23.5 23t25.5 22t23 12q12 2 26 -10t20 -27q14 12 28 23t24 14q9 2 20 -4.5t18.5 -17t11 -21.5t-2.5 -18t-21 -13.5t-33 -12.5t-35.5 -10.5t-29.5 -7.5q-17 -5 -22.5 3.5t-1.5 17.5q-20 -8 -41 -13t-33 -8t-18 0.5t-7.5 9 t1.5 12t8 11.5z" />
<glyph unicode="&#x172;" horiz-adv-x="788" d="M659 62q-9 -5 -25.5 -13.5t-32.5 -18.5t-26 -21t-6 -21q3 -7 8 -6.5t10.5 5t10.5 10.5t7 10q3 5 10 3t13.5 -8t11 -15t1.5 -17t-14 -18t-26 -13.5t-31 2.5t-30 29q-11 19 0 36.5t31.5 32t42.5 25t33 14.5q-21 16 -27 43.5t-3 58.5t12.5 60.5t20.5 48.5q-44 -26 -98 -59 t-111 -65.5t-114.5 -60t-108.5 -42t-92.5 -12.5t-66.5 30q-23 25 -28 58t3 69.5t26.5 74.5t41.5 73t48 65.5t47 52.5q16 16 42 21.5t49 3.5t36.5 -10t4.5 -18q-4 -5 -20.5 -23.5t-39 -45.5t-49 -60.5t-51 -68t-44.5 -67.5t-29 -59.5t-5 -43t27 -18.5q49 -4 114 21.5t137 69 t147 98.5t143 110t124.5 104.5t92.5 80.5q17 15 44.5 17.5t52 -1.5t40 -11.5t9.5 -13.5q-22 -19 -62 -50.5t-85 -71t-90 -84.5t-76.5 -91.5t-44 -91.5t6.5 -85q4 -10 -1 -13q-2 -3 -4.5 -5t-6.5 -5z" />
<glyph unicode="&#x173;" horiz-adv-x="325" d="M229 120q-9 -5 -25.5 -13.5t-32.5 -18.5t-26 -21t-6 -21q3 -7 8 -6.5t10.5 5t10.5 10.5t7 10q3 5 10 2.5t14 -8.5t11 -14.5t1 -16.5t-14 -18t-25.5 -14t-31 2t-30.5 30q-8 14 -3.5 28t17 26t29 22t32.5 17q-19 7 -34.5 20.5t-17.5 30.5q-2 8 0 14.5t4 9.5 q-13 -11 -28.5 -24.5t-30.5 -25.5t-28 -20t-22 -8q-6 0 -17 3.5t-21.5 9.5t-19 13.5t-10.5 16.5q-1 9 8.5 29t23 43t29.5 44.5t28 33.5q7 5 19 2.5t23 -9t20 -15t10 -15.5q2 -5 -4 -15.5t-15.5 -22.5t-20 -25t-18 -22.5t-9.5 -14.5t6 -2q7 3 19.5 12.5t27.5 22.5t31 27.5 t30 27.5t24 22t14 11q5 1 13 -1t16.5 -7t15 -12.5t9.5 -15.5t-7.5 -22.5t-23 -29.5t-21.5 -27t-4 -16q4 -3 21.5 7.5t39.5 26t42.5 31.5t29.5 24q18 16 25 7.5t-3 -24.5q-5 -7 -20.5 -23.5t-35.5 -35t-40 -35t-34 -22.5z" />
<glyph unicode="&#x174;" horiz-adv-x="946" d="M703 168q28 28 63 68t72 86.5t74 95.5t70.5 94t60.5 83.5t44 64.5q4 6 11 8t12.5 0t8 -7t-0.5 -11q-31 -59 -68 -126.5t-79.5 -136.5t-90 -135.5t-101.5 -124t-114.5 -102t-126.5 -68.5q-30 -11 -64 -12.5t-63 8.5t-49 32t-24 59q-28 -24 -66.5 -46t-79 -31t-79.5 0.5 t-67 48.5q-22 31 -26 72.5t7 89t33.5 97t54 97t68.5 89.5t76.5 73t79 49t75.5 17q4 0 12.5 -3t16 -7.5t11.5 -8.5t0 -6q-71 -32 -125 -87.5t-102 -115.5q-13 -16 -37.5 -51t-49 -77t-45 -86t-26 -78.5t9.5 -54.5t60 -14q61 8 112 38t96 70q20 69 60 135t85 124 q16 21 39 48.5t50.5 51.5t57 39t58.5 11q31 -4 29 -27.5t-25.5 -58.5t-62 -78t-80 -86.5t-80.5 -84t-62 -69.5q-6 -13 -12.5 -30t-11 -34.5t-5 -35t6.5 -31.5q8 -20 32.5 -16t57 21.5t68.5 44t67.5 52.5t54.5 46.5t29 26.5zM523 286q25 21 50 47.5t45.5 51t35 42.5t18.5 22 q-19 -13 -39.5 -32.5t-40.5 -42t-38 -45.5t-31 -43zM642 604q1 7 17.5 21t37.5 28.5t40 25t27 10.5q12 0 23.5 -10t20 -24t13 -29t3.5 -25q0 -5 -5.5 -8.5t-12.5 -5.5t-14.5 -2t-11.5 3q-5 4 -3.5 10.5t4.5 14.5t5.5 16.5t1.5 17.5q-9 -8 -21.5 -19t-24.5 -21t-23 -18 t-18 -9q-7 -2 -17.5 -1t-20.5 4.5t-16.5 8.5t-4.5 12z" />
<glyph unicode="&#x175;" horiz-adv-x="409" d="M178 299q6 6 15.5 3.5t18.5 -10t16.5 -18t9.5 -18.5q1 -8 -7 -22t-16.5 -28.5t-13.5 -26.5t2 -15q7 -2 23.5 11.5t36.5 33.5q-9 13 -6.5 28.5t11 28t20.5 21.5t24 9h1q13 0 19.5 -6t7 -16t-4 -22t-11.5 -24q14 -9 38 -9t46 21q5 5 11 7t9.5 1.5t4 -4.5t-5.5 -11 q-14 -16 -30.5 -28.5t-34.5 -19.5t-36.5 -7.5t-36.5 8.5q-26 -26 -53 -46t-50 -20q-6 0 -14.5 5t-17 12.5t-15 17t-8.5 17.5q-3 8 -3.5 16t-0.5 16q-12 -11 -25.5 -25t-27 -26t-25 -20.5t-20.5 -8.5q-5 0 -14 3.5t-18.5 9.5t-17.5 13.5t-9 16.5t7 29t20 43t26.5 44.5 t26.5 33.5q6 5 16 2.5t20 -9t18 -15.5t10 -17q1 -5 -4.5 -15t-14.5 -22t-18 -24.5t-16 -22t-8.5 -14.5t5.5 -2q6 3 15.5 10.5t21 18t24 23t23.5 24.5q7 14 16 24.5t20 20.5zM145 390q1 7 17.5 21t37.5 28.5t40.5 25t27.5 10.5q12 0 23 -10t19.5 -24t13.5 -28.5t4 -24.5 q-1 -5 -6.5 -9t-12.5 -6t-14.5 -2t-11.5 3q-5 4 -3.5 10.5t4.5 14.5t6 16.5t2 17.5q-10 -8 -22.5 -18.5t-24.5 -20.5t-23 -18t-18 -10t-17.5 -1t-20 4.5t-16 8.5t-5.5 12z" />
<glyph unicode="&#x176;" horiz-adv-x="502" d="M295 228q53 60 104.5 115.5t105 107t112 100t125.5 93.5q18 12 37 10.5t33 -9.5t21 -18t1 -14q-35 -23 -73 -52.5t-74.5 -61t-70 -63.5t-60.5 -59q11 -7 15 -23.5t-7 -28.5q-32 -33 -74 -53.5t-81 -43.5q-84 -78 -153 -160.5t-128 -163.5q-3 -4 -14 -2t-22.5 8t-20.5 16 t-7 22q1 13 20.5 40.5t47.5 61.5t59 69.5t56 64.5q-30 -11 -61.5 -12.5t-58.5 8.5t-47 33t-28 61q-10 44 -6.5 93t16.5 96t33.5 88.5t46 70.5t53.5 42.5t55 5.5q2 -1 11 -7t18 -14t14 -15t1 -9q-27 -12 -56 -43.5t-54 -72.5t-43.5 -87.5t-26 -88.5t-1.5 -75.5t31 -49.5 q16 -10 35 -10t39.5 5t40 12.5t36.5 12.5zM362 630q1 7 17.5 21t37.5 28.5t40.5 25t27.5 10.5q12 0 23 -10t19.5 -24t13.5 -28.5t4 -24.5q0 -5 -5.5 -9t-13 -6t-15 -2t-11.5 3q-5 4 -3.5 10.5t4.5 14.5t6 16.5t2 17.5q-9 -8 -21.5 -18.5t-25 -20.5t-23.5 -18t-18 -10 t-17.5 -1t-20 4.5t-16 8.5t-5.5 12z" />
<glyph unicode="&#x177;" horiz-adv-x="282" d="M292 252q14 12 23 4.5t-5 -23.5q-4 -5 -22 -20.5t-45.5 -41t-63 -59.5t-73.5 -74q-45 -48 -74 -94.5t-48 -84.5t-30.5 -63.5t-20.5 -29.5t-23 -4.5t-26 3t-17 11t5 21.5q7 11 30.5 51t55.5 94t69.5 115.5t72.5 115.5q-20 -19 -39 -34t-31 -15q-6 0 -16 3.5t-20 9 t-18.5 13t-10.5 16.5q-1 8 7.5 27.5t22 42t29 44t28.5 32.5q6 5 16.5 3t21 -8.5t19 -15.5t9.5 -16q3 -7 -10 -25t-27.5 -35.5t-23.5 -30t2 -8.5q8 3 20.5 13t27 23.5t29.5 28.5t28 27q8 7 12.5 12.5t7.5 6.5q7 1 16 -2t17 -8t13 -12.5t5 -14.5q0 -8 -12 -23t-30.5 -37.5 t-43 -53t-49.5 -69.5q3 3 22.5 24t48 49.5t61 58.5t60.5 53zM106 390q1 7 17.5 21t37 28.5t40 25t27.5 10.5q12 0 23 -10t20 -24t13.5 -28.5t3.5 -24.5q0 -5 -5.5 -9t-13 -6t-14.5 -2t-11 3q-5 4 -3.5 10.5t4.5 14.5t5.5 16.5t1.5 17.5q-9 -8 -21.5 -18.5t-25 -20.5 t-23.5 -18t-18 -10t-17.5 -1t-20 4.5t-16 8.5t-4.5 12z" />
<glyph unicode="&#x178;" horiz-adv-x="502" d="M295 228q53 60 104.5 115.5t105 107t112 100t125.5 93.5q18 12 37 10.5t33 -9.5t21 -18t1 -14q-35 -23 -73 -52.5t-74.5 -61t-70 -63.5t-60.5 -59q11 -7 15 -23.5t-7 -28.5q-32 -33 -74 -53.5t-81 -43.5q-84 -78 -153 -160.5t-128 -163.5q-3 -4 -14 -2t-22.5 8t-20.5 16 t-7 22q1 13 20.5 40.5t47.5 61.5t59 69.5t56 64.5q-30 -11 -61.5 -12.5t-58.5 8.5t-47 33t-28 61q-10 44 -6.5 93t16.5 96t33.5 88.5t46 70.5t53.5 42.5t55 5.5q2 -1 11 -7t18 -14t14 -15t1 -9q-27 -12 -56 -43.5t-54 -72.5t-43.5 -87.5t-26 -88.5t-1.5 -75.5t31 -49.5 q16 -10 35 -10t39.5 5t40 12.5t36.5 12.5zM485 655q4 0 13 -4t18 -10t16 -13t7 -12q2 -13 -4.5 -24.5t-15.5 -20t-19 -12.5t-16 -2q-8 1 -21.5 9.5t-20.5 19.5q-11 -9 -21 -14t-17 -3q-5 1 -13.5 5.5t-16 11t-13 13.5t-5.5 13q0 7 4.5 16.5t12 18t16.5 15t17 6.5 q3 0 9.5 -2.5t14 -7t15 -10t11.5 -11.5q13 16 29 18z" />
<glyph unicode="&#x179;" horiz-adv-x="666" d="M1050 671q5 3 6 -6t-4 -23.5t-16 -30.5t-29 -28q-16 -10 -57.5 -26.5t-89.5 -30.5q-36 -17 -87.5 -45.5t-112.5 -64.5t-128 -77.5t-135.5 -86t-134.5 -89.5t-124 -87q87 25 175.5 45.5t178.5 28.5q17 1 35 2.5t35 0.5t33.5 -6t30.5 -16q13 -10 14 -15t-5 -6.5t-17 -1.5 h-23q-72 0 -159 -19t-177 -49t-175.5 -67t-154.5 -73q-18 -9 -19.5 6.5t14 41t49 54.5t86.5 47q78 66 160 124t167.5 112t172.5 106t175 105q-83 -13 -158.5 -25t-149 -27.5t-148 -37t-156.5 -53.5q-5 -2 -6.5 7.5t2 23.5t13.5 29t30 23q69 27 142.5 44.5t150 30.5t154 25 t153 29t148.5 42t141 64zM575 620q5 4 16 15t23.5 23t25.5 22t22 12q10 2 20.5 -4.5t18.5 -17t11 -21.5t-3 -18t-20.5 -13.5t-32.5 -12t-36 -10l-30 -7.5t-17.5 0t-7 8.5t1 12t8.5 11.5z" />
<glyph unicode="&#x17a;" horiz-adv-x="253" d="M8 287q8 10 36 13t59.5 2t58 -5.5t31.5 -9.5q11 -10 7.5 -23.5t-20.5 -22.5q-10 -5 -28 -14.5t-36 -20.5q-21 -12 -45 -26q4 -5 8 -9t8.5 -7t9.5 -4q8 -2 30 6.5t46.5 20t47.5 23.5t32 18q21 11 28 3.5t-7 -19.5q-8 -6 -30.5 -24t-49 -37.5t-51 -34.5t-34.5 -15t-19 7 t-17.5 16.5t-16.5 18.5t-15 14q-8 -6 -17 -15.5t-18 -18t-18.5 -15t-18.5 -7.5q-9 -2 -16 4t-12 15t-7 19t0 16q4 9 19.5 20.5t34 20.5t35.5 12.5t24 -3.5l66 36q-22 -6 -40 -11q-16 -5 -31.5 -10t-23.5 -9q-9 -4 -13.5 5t-5 22.5t1.5 28t7 20.5zM127 395q6 4 16.5 15 t23.5 23t26 22t22 12t20 -4.5t18.5 -17t11 -21.5t-2.5 -18t-21 -13.5t-33 -12.5t-35.5 -10.5t-29.5 -7.5t-17.5 0.5t-7 9t1 12t7.5 11.5z" />
<glyph unicode="&#x17b;" horiz-adv-x="666" d="M1050 671q5 3 6 -6t-4 -23.5t-16 -30.5t-29 -28q-16 -10 -57.5 -26.5t-89.5 -30.5q-36 -17 -87.5 -45.5t-112.5 -64.5t-128 -77.5t-135.5 -86t-134.5 -89.5t-124 -87q87 25 175.5 45.5t178.5 28.5q17 1 35 2.5t35 0.5t33.5 -6t30.5 -16q13 -10 14 -15t-5 -6.5t-17 -1.5 h-23q-72 0 -159 -19t-177 -49t-175.5 -67t-154.5 -73q-18 -9 -19.5 6.5t14 41t49 54.5t86.5 47q78 66 160 124t167.5 112t172.5 106t175 105q-83 -13 -158.5 -25t-149 -27.5t-148 -37t-156.5 -53.5q-5 -2 -6.5 7.5t2 23.5t13.5 29t30 23q69 27 142.5 44.5t150 30.5t154 25 t153 29t148.5 42t141 64zM634 679q4 0 13 -4t18 -10t16 -13t7 -12q1 -13 -5 -24.5t-15.5 -20t-19.5 -13t-16 -2.5q-5 1 -13.5 5.5t-16 11t-13 13.5t-5.5 13q0 7 4.5 16.5t12 18t16.5 15t17 6.5z" />
</font>
</defs>
</svg>
